Welcome Guest ( Log In | Register )

История благодарностей участнику Indamage ::: Спасибо сказали: 10432 раз(а)
Дата поста: В теме: За сообщение: Спасибо сказали:
Aug 26 2018, 17:32:44 Barad Dûr - Vergeltung (2013)
mp3@320
Register
(3) Aresson, thenecromancer, wolverine,
Feb 4 2017, 19:42:23 Sinister - Neurophobic [studio clip] (2017)


*Performer: Sinister
*Title: Neurophobic
*Type: Studio Clip
*Album: Syncretism
*Year: 2017
*Genre: Death Metal
*Country: Netherlands

*Audio: mp3@192kbps
*Video: h.264@2781kbps
*Resolution: 1280x720
*Size: 125MB
******************************
*Length: 00:05:53

[more=Extended info][youtube]2hXxnK1p38o[/youtube][/more]

Register
(18) -=Lion=-, DarkHorde, Galactus, gwar, Kaiser, morbidangelo, Paradayz, pavelklap, RENыч, Rosen, RUSP73, Saalingurth, Samogon, Scuns, Styx, VALERY, xBelialx, ZVI,
Feb 29 2016, 22:01:16 Mgła - Exercises In Futility VI [live clip] (2015)


*Performer: Mgła
*Title: Exercises In Futility VI
*Type: Live Clip
*Album: Exercises In Futility
*Year: 2015
*Genre: Black Metal
*Country: Poland

*Audio: mp3@128kbps
*Video: h.264@2787kbps
*Resolution: 1920x1080
*Size: 139MB
******************************
*Length: 00:06:40

[more=Extended info][youtube]7yguSkVd2rk[/youtube][/more]

Register
(13) DarkHorde, DenisKov, Fess, garml2, killingod, Moonshtook, morbidangelo, NachtWulf, Necromayhem, Rosen, Saalingurth, Styx, VALERY,
Nov 8 2015, 09:21:45 Hammer Horde - Unholy Harbingers Of War [studio clip] (2015)


*Performer: Hammer Horde
*Title: Unholy Harbingers Of War
*Type: Studio Clip
*Album: Fed To The Wolves
*Year: 2015
*Genre: Melodic Death/Viking Metal
*Country: United States

*Audio: mp3@128kbps
*Video: h.264@4102kbps
*Resolution: 1920x1080
*Size: 156MB
******************************
*Length: 00:05:09

[more=Extended info][youtube]u-FLPthX_fU[/youtube][/more]

Register
(10) Kaiser, morbidangelo, neoatheist, respect, Rosen, Storky, VALERY, wanderer73, xxdarkmanxx, Смусмумбрик,
Oct 11 2015, 16:04:28 Soul Extinction - Lost (2009)
Register
(2) DMIYUR, V1nterch,
Oct 2 2015, 21:07:56 Swords At Hymns - Where I Buried My Heart [studio clip] (2015)


*Performer: Swords At Hymns
*Title: Where I Buried My Heart
*Type: Studio Clip
*Album: Autumnal Introspections
*Year: 2015
*Genre: Melodic Black/Pagan Metal
*Country: Brazil

*Audio: mp3@128kbps
*Video: h.264@2848kbps
*Resolution: 1920x1080
*Size: 125MB
******************************
*Length: 00:05:53

[more=Extended info][youtube]XnLXhs7tjJk[/youtube][/more]

Register
(4) respect, Rosen, VALERY, wanderer73,
Oct 2 2015, 20:58:02 The Infernal Sea - Entombed In Darkness [studio clip] (2015)


*Performer: The Infernal Sea
*Title: Entombed In Darkness
*Type: Studio Clip
*Album: The Great Mortality
*Year: 2015
*Genre: Black Metal
*Country: United Kingdom

*Audio: mp3@128kbps
*Video: h.264@3105kbps
*Resolution: 1920x1080
*Size: 117MB
******************************
*Length: 00:05:04

[more=Extended info][youtube]Nus9AuM7YxY[/youtube][/more]

Register
(6) respect, Rime, Rosen, Scuns, VALERY, Смусмумбрик,
Oct 2 2015, 19:38:03 Aethernaeum - Heimreise (Ein Requiem) [studio clip] (2015)


*Performer: Aethernaeum
*Title: Heimreise (Ein Requiem)
*Type: Studio Clip
*Album: Naturmystik
*Year: 2015
*Genre: Folk/Black Metal
*Country: Germany

*Audio: mp3@191kbps
*Video: h.264@2392kbps
*Resolution: 1280x720
*Size: 117MB
******************************
*Length: 00:06:21

[more=Extended info][youtube]pkOXVVBIlNk[/youtube][/more]

Register
(8) gwar, Kaiser, Ramires, respect, Rime, Rosen, Shadowlord, VALERY,
Oct 2 2015, 19:27:49 Vreid - Sólverv [studio clip] (2015)


*Performer: Vreid
*Title: Sólverv
*Type: Studio Clip
*Album: Sólverv
*Year: 2015
*Genre: Black Metal
*Country: Norway

*Audio: mp3@160kbps
*Video: h.264@2386kbps
*Resolution: 1280x720
*Size: 112MB
******************************
*Length: 00:06:09

[more=Extended info][youtube]VWMG9-8De38[/youtube][/more]

Register
(9) HappyRat, Kaamos, Rime, Rosen, RUDACHUR, RUSP73, Scuns, VALERY, Смусмумбрик,
May 2 2015, 12:40:12 Der Weg Einer Freiheit - Stellar (2015)


mp3@320
Register
(12) AndreFrancis, Black Arts, Chasm, CultMetalSerge, DarkHorde, kim666, Korpse, SilentNidhogg, varg-38ru, varlam4, vasiljev_sergej, Zenial,
Apr 18 2015, 08:55:58 Thurisaz - One Final Step [studio clip] (2015)


*Performer: Thurisaz
*Title: One Final Step
*Type: Studio Clip
*Album: The Pulse Of Mourning
*Year: 2015
*Genre: Atmospheric/Melodic Death/Black Metal
*Country: Belgium

*Audio: mp3@256kbps
*Video: h.264@3507kbps
*Resolution: 1920x1080
*Size: 216MB
******************************
*Length: 00:08:02

[more=Extended info][youtube]8draqX6eL_4[/youtube][/more]

Register
(10) BlindAvatar, morbidangelo, NachtWulf, Rosen, Stringer, tranquillit, VALERY, wreak, xxdarkmanxx, Смусмумбрик,
Apr 18 2015, 08:45:09 Ereb Altor - Midsommarblot [studio clip] (2015)


*Performer: Ereb Altor
*Title: Midsommarblot
*Type: Studio Clip
*Album: Nattramn
*Year: 2015
*Genre: Epic Viking/Black/Doom Metal
*Country: Sweden

*Audio: mp3@256kbps
*Video: h.264@3570kbps
*Resolution: 1920x1080
*Size: 138MB
******************************
*Length: 00:05:02

[more=Extended info][youtube]Zn2KwKvaG28[/youtube][/more]

Register
(9) morbidangelo, Reverend, Rosen, RUDACHUR, Scuns, suseka, VALERY, wreak, Смусмумбрик,
Apr 5 2015, 14:16:25 Meat Devourer - Consuming The Meat [studio clip] (2012)


*Performer: Meat Devourer
*Title: Consuming The Meat
*Type: Studio Clip
*Album: Slaughtered Like A Pig [ep]
*Year: 2012
*Genre: Brutal Death Metal
*Country: Italy

*Audio: mp3@145kbps
*Video: h.264@2847kbps
*Resolution: 1280x720
*Size: 86MB
******************************
*Length: 00:04:00

[more=Extended info][youtube]r6iFxjUPg2M[/youtube][/more]

Register
(4) Rime, Rosen, wreak, Wyler,
Mar 8 2015, 09:08:04 Mòr - Aequinoctium [demo] (2015)


*Artist: Mòr
*Album: Aequinoctium [demo]
*Year: 2015
*Genre: Atmospheric/Raw Black Metal
*Country: France
*Format: mp3@CBR320kbps
*Size: 54MB

Tracklist:
01. The Vanishing of Matter
02. Eden
03. The Third Path
04. The Apprentice
05. Smaragdina
******************************
Total playing time: 23:21



[more=Technical info]
Input File: 01 The Vanishing of Matter.mp3
Channels : 2
Sample Rate : 44100
Precision : 16-bit
Duration : 00:04:54.74 = 12998078 samples = 22105.6 CDDA sectors
File Size : 11.8M
Bit Rate : 320k
Sample Encoding: MPEG audio (layer I, II or III)
Comments :
Title=The Vanishing of Matter
Artist=MГІr
Album=Aequinoctium Demo
Tracknumber=1
Year=2015

[/more]

Register
(19) -=Hass=-, 1968_janeart, blacky66, Daemoniacus, Darkthronefoad, Fryz, gena, Ildjarn, kim666, p42es, randumbum, Razorbladeswaltz, Rosen, serach, stub888, tont, varg-38ru, varlam4, vasiljev_sergej,
Feb 1 2015, 11:00:47 Intestinal Laceration - Enjoy Their Putrid Flesh [studio clip] (2015)


*Performer: Intestinal Laceration
*Title: Enjoy Their Putrid Flesh
*Type: Studio Clip
*Album: Enjoy Their Putrid Flesh
*Year: 2015
*Genre: Brutal Death Metal
*Country: Peru

*Audio: mp3@128kbps
*Video: h.264@3047kbps
*Resolution: 1920x1080
*Size: 82MB
******************************
*Length: 00:03:37

[more=Extended info][youtube]vGVqjuz3LpQ[/youtube][/more]

Register
(5) LUCASDEATH, Rosen, Scuns, Styx, wreak,
Jan 31 2015, 11:59:32 Darkmoon Warrior - Satanification [studio clip] (2015)


*Performer: Darkmoon Warrior
*Title: Satanification
*Type: Studio Clip
*Album: Nuke 'Em All
*Year: 2015
*Genre: Black Metal
*Country: Germany

*Audio: mp3@253kbps
*Video: h.264@3906kbps
*Resolution: 1920x1080
*Size: 220MB
******************************
*Length: 00:07:24

[more=Extended info][youtube]I5O4l-EMm-Y[/youtube][/more]

Register
(9) craP_cillA, NachtWulf, Reverend, Rime, Rosen, RUSP73, Scuns, VALERY, wreak,
Jan 31 2015, 11:54:40 Totengeflüster - Ein Neuer Pfad [studio clip] (2015)


*Performer: Totengeflüster
*Title: Ein Neuer Pfad
*Type: Studio Clip
*Album: Vom Seelensterben
*Year: 2015
*Genre: Symphonic Black Metal
*Country: Germany

*Audio: mp3@253kbps
*Video: h.264@3088kbps
*Resolution: 1920x1080
*Size: 155MB
******************************
*Length: 00:06:29

[more=Extended info][youtube]ua3cL-M8lmc[/youtube][/more]

Register
(6) Kaiser, Rosen, Scuns, VALERY, wreak, xxdarkmanxx,
Jan 28 2015, 22:34:15 Dying Fetus - Infatuation With Malevolence [compilation] (1995)
mp3@320
Reissue with bonus

Register
(1) d-fedorr,
Jan 28 2015, 10:24:04 Pill Eater - Bewusstsein [ep] (2014)


*Artist: Pill Eater
*Album: Bewusstsein [ep]
*Year: 2014
*Genre: Atmospheric Black Metal
*Country: Germany
*Format: mp3@CBR320kbps
*Size: 39MB

Tracklist:
1. Bewusstsein I 08:56
2. Bewusstsein II 07:51
******************************
Total playing time: 16:47



[more=Technical info]
Input File: 01 - Bewusstsein I.mp3
Channels : 2
Sample Rate : 44100
Precision : 16-bit
Duration : 00:08:56.11 = 23642539 samples = 40208.4 CDDA sectors
File Size : 21.4M
Bit Rate : 320k
Sample Encoding: MPEG audio (layer I, II or III)
Comments :
Title=Bewusstsein I
Artist=Pill Eater
Album=Bewusstsein (EP)
Tracknumber=01
Year=2014

[/more]

Register
(10) 0x13, 1968_janeart, NachtWulf, Rosen, spiritualdecay666, stub888, tont, varlam4, vasiljev_sergej, wreak,
Jan 28 2015, 10:18:02 Pill Eater - Großstadterotik (2009)


*Artist: Pill Eater
*Album: Großstadterotik
*Year: 2009
*Genre: Atmospheric Black Metal
*Country: Germany
*Format: mp3@CBR320kbps
*Size: 80MB

Tracklist:
1. Großstadterotik I 12:08
2. Großstadterotik II 03:56
3. Großstadterotik III 13:56
4. Großstadterotik IV 04:48
******************************
Total playing time: 34:48



[more=Technical info]
Input File: 01 - Gro?stadterotik I.mp3
Channels : 2
Sample Rate : 44100
Precision : 16-bit
Duration : 00:12:08.70 = 32135846 samples = 54652.8 CDDA sectors
File Size : 29.1M
Bit Rate : 320k
Sample Encoding: MPEG audio (layer I, II or III)
Comments :
Title=GroГџstadterotik I
Artist=Pill Eater
Album=GroГџstadterotik
Tracknumber=01
Year=2009

[/more]

Register
(17) 1968_janeart, bka, Buregon, DarkHorde, gav-gafi, morbidangelo, Morthal, NachtWulf, Rosen, SilentNidhogg, spiritualdecay666, stub888, tont, VALERY, varlam4, vasiljev_sergej, wreak,
Jan 23 2015, 22:05:02 Viento Nokturno - An Awakening Dusk Of Isolation [demo] (2012)


*Artist: Viento Nokturno
*Album: An Awakening Dusk Of Isolation [demo]
*Year: 2012
*Genre: Raw Black Metal/Ambient
*Country: United States
*Format: mp3@CBR128kbps
*Size: 29MB

Tracklist:
1. Spiral Dreams 01:03
2. An Awakening Dusk of Isolation 08:56
3. Insomne Sombras 03:26
4. Insomne Sombras II 04:57
5. Hollow Scars (acoustic) 04:12
6. In My Own Havoc 09:37
******************************
Total playing time: 32:11

[more=Extended info][youtube]XCla0lBCguo[/youtube][/more]

Register
(5) 1968_janeart, Fatalist77791, Rosen, tont, vasiljev_sergej,
Jan 23 2015, 21:37:42 Skoll - Misty Woods (2008)


*Artist: Skoll
*Album: Misty Woods
*Year: 2008
*Genre: Ambient/Folk
*Country: Italy
*Format: mp3@CBR320kbps
*Size: 75MB

Tracklist:
1. Enter the Woods 01:25
2. Mist 06:26
3. Shores of Sorrow 01:30
4. Mermaid's Song 04:00
5. I 05:12
6. The Dance 02:24
7. Wyrd 04:26
8. Desolate Notes 03:57
9. Wind 03:24
******************************
Total playing time: 32:44

[more=Extended info][youtube]skQFbSU87e8[/youtube][/more]

[more=Technical info]
Input File: 04 - Mermaid\'s Song.mp3
Channels : 2
Sample Rate : 44100
Precision : 16-bit
Duration : 00:03:58.75 = 10528831 samples = 17906.2 CDDA sectors
File Size : 9.55M
Bit Rate : 320k
Sample Encoding: MPEG audio (layer I, II or III)
Comments :
Title=Mermaid's Song
Artist=Skoll
Album=Misty Woods
Tracknumber=4
Year=2008

[/more]

Register
(14) Borderline1991, dermarsoran, Moonshtook, rom666, RUSP73, spiritualdecay666, stub888, varlam4, Velkaarn, Wormtongue, Wotanwatch, ZA670, Zenial, zoog,
Jan 14 2015, 17:46:21 Cruenta Lacrymis - Mother Of Sigh [studio clip] (2015)


*Performer: Cruenta Lacrymis
*Title: Mother Of Sigh
*Type: Studio Clip
*Album: Sweetness And Blasphemy
*Year: 2015
*Genre: Symphonic Black/Death Metal
*Country: Italy

*Audio: mp3@192kbps
*Video: h.264@1362kbps
*Resolution: 1280x720
*Size: 59MB
******************************
*Length: 00:05:19

[more=Extended info][youtube]o3zQDhIetEw[/youtube][/more]

Register
(6) Reverend, Rime, Rosen, Scuns, VALERY, wreak,
Jan 14 2015, 17:40:50 Malignant Defecation - Malignant Butchery Maniacs [studio clip] (2014)


*Performer: Malignant Defecation
*Title: Malignant Butchery Maniacs
*Type: Studio Clip
*Album: Malignant Butchery Maniacs
*Year: 2014
*Genre: Brutal Death Metal/Goregrind
*Country: Italy

*Audio: mp3@192kbps
*Video: h.264@2510kbps
*Resolution: 1280x720
*Size: 75MB
******************************
*Length: 00:03:52

[more=Extended info][youtube]jcVxe_2DFn8[/youtube][/more]

Register
(5) Pinhead666, Rime, Rosen, Scuns, wreak,
Jan 13 2015, 21:19:27 Cerebral Effusion - Unscrupulous Inebriated Emaciation [studio clip] (2014)


*Performer: Cerebral Effusion
*Title: Unscrupulous Inebriated Emaciation
*Type: Studio Clip
*Album: Idolatry Of The Unethical
*Year: 2014
*Genre: Brutal Death Metal
*Country: Spain

*Audio: mp3@192kbps
*Video: h.264@1596kbps
*Resolution: 1280x720
*Size: 66MB
******************************
*Length: 00:05:09

[more=Extended info][youtube]Wd9aXQmgQ-4[/youtube][/more]

Register
(6) cesar, Chasm, Reverend, Rosen, Scuns, wreak,

53 Pages V   1 2 3 > » 
- Lo-Fi Version Support form
Copyrights and abuse reports form
Time is now: 1st April 2020 - 18:51:11