Welcome Guest ( Log In | Register )

История благодарностей участнику Immolator ::: Спасибо сказали: 882 раз(а)
Дата поста: В теме: За сообщение: Спасибо сказали:
Jan 3 2019, 19:15:23 Kublai Khan - Annihilation (1987)
Register
(1) Mplast,
Dec 27 2018, 18:44:49 DIIV - Is The Is Are (2012)


*Artist: DIIV
*Album: Is The Is Are
*Year: 2012
*Genre: Indie Rock/Shoegaze
*Country: United States
*Format: mp3@CBR320kbps
*Size: 139MB

Tracklist:
01. Out of Mind 03:08
02. Under the Sun 03:47
03. Bent (Roi's Song) 05:40
04. Dopamine 03:56
05. Blue Boredom (Sky's Song) 02:33
06. Valentine 03:18
07. Yr Not Far 03:19
08. Take Your Time 04:58
09. Is the Is Are 03:09
10. Mire (Grant's Song) 05:35
11. Incarnate Devil 04:43
12. (Fuck) 00:17
13. Healthy Moon 04:12
14. Loose Ends 03:13
15. (Napa) 01:44
16. Dust 04:34
17. Waste of Breath 05:23
******************************
Total playing time: 1:03:29

[more=Extended info][youtube]zKbqyuaXolg[/youtube][/more]

[more=Technical info]
Input File: 02 Under the Sun.mp3
Channels : 2
Sample Rate : 44100
Precision : 16-bit
Duration : 00:03:47.05 = 10013081 samples = 17029 CDDA sectors
File Size : 9.08M
Bit Rate : 320k
Sample Encoding: MPEG audio (layer I, II or III)
Comments :
Title=Under the Sun
Artist=DIIV
Album=Is the Is Are
Tracknumber=2/17
Year=2016

[/more]

Register
(1) A.L.Rapsod,
Dec 27 2018, 18:36:52 DIIV - Oshin (2012)


*Artist: DIIV
*Album: Oshin
*Year: 2012
*Genre: Indie Rock/Shoegaze
*Country: United States
*Format: mp3@CBR320kbps
*Size: 113MB

Tracklist:
01. (Druun) 02:08
02. Past Lives 02:22
03. Human 02:58
04. Air Conditioning 04:31
05. How Long Have You Known 03:34
06. Wait 03:17
07. Earthboy 03:15
08. (Druun Pt. II) 02:47
09. Follow 02:46
10. Sometime 03:06
11. Oshin (Subsume) 03:33
12. Doused 03:44
13. Home 02:30
14. Geist (Bonus Track) 04:46
15. Bambi Slaughter (Bonus Track) 02:51
******************************
Total playing time: 48:08

[more=Extended info][youtube]KI79GPXAICM[/youtube][/more]

[more=Technical info]
Input File: 12 - Doused.mp3
Channels : 2
Sample Rate : 44100
Precision : 16-bit
Duration : 00:03:43.57 = 9859481 samples = 16767.8 CDDA sectors
File Size : 8.95M
Bit Rate : 320k
Sample Encoding: MPEG audio (layer I, II or III)
Comments :
Title=Doused
Artist=DIIV
Album=Oshin (Deluxe Edition)
Tracknumber=12
Year=2012

[/more]

Register
(1) A.L.Rapsod,
Dec 6 2018, 17:01:03 Dream Theater - Untethered Angel [single] (2018)
Мне не нравится альтернатива и ню-метал в основном из-за отсутствия гитарных соло, плюс все эти ню металлисты часто с рэпом заигрывают, а это две не совместимые культуры. Для театралов это неудачный эксперимент. Может быть я приверженец классических канонов, но это так.
(1) vosmidesijatye,
Nov 7 2018, 16:17:01 Metallica - …and Justice For All (Deluxe Box Set) [boxed set] (2018)
Не представляющая ценности хрень. А вот это еще куда не шло
[youtube]https://www.youtube.com/watch?v=6kqTcLwUYj8[/youtube]
бас выведен как положено. Вот собственно сабж.

Чет видос не вставляется
https://www.youtube.com/watch?v=6kqTcLwUYj8
(2) death77, Ghostb,
Oct 24 2018, 18:19:57 Cerber - Клату Верату [ep] (2018)


*Artist: Cerber
*Album: Клату Верату [ep]
*Year: 2018
*Genre: Thrash Metal
*Country: Russian Federation
*Format: mp3@CBR320kbps
*Size: 41MB

Tracklist:
01- Гниение 3:55
02 - Это моё 3:27
03 - Жатва 3:59
04 - Клату Верату 3:43
05 - Ваня (The Exploited cover) 2:20
******************************
Total playing time: 17:24

Preview 1

[more=Technical info]
Input File: 01 - Гниение.mp3
Channels : 2
Sample Rate : 48000
Precision : 16-bit
Duration : 00:03:55.25 = 11291904 samples ~ 17643.6 CDDA sectors
File Size : 9.41M
Bit Rate : 320k
Sample Encoding: MPEG audio (layer I, II or III)

[/more]

Register
(7) apostol_13, Aresson, artscald, boby9052, METALHUNTER, postal67, Rosen,
Apr 15 2018, 17:58:41 Scarlet Host - Black Days (2018)
Все бы ничего, но рэп с**а убивает напрочь.
(1) Foneg,
Apr 1 2018, 05:10:10 PHI - Cycles (2018)


*Artist: PHI
*Album: Cycles
*Year: 2018
*Genre: Progressive Metal/Rock
*Country: Austria
*Format: mp3@CBR320kbps
*Size: 113MB

Tracklist:
01. Children of the Rain 08:55
02. Dystopia 08:50
03. In the Name of Freedom 07:25
04. Amber 07:41
05. Existence 06:50
06. Blackened Rivers 07:45
******************************
Total playing time: 47:26

[more=Extended info][youtube]8zVeRW4DpAA[/youtube][/more]

[more=Technical info]
Input File: 01 - Children of the Rain.mp3
Channels : 2
Sample Rate : 44100
Precision : 16-bit
Duration : 00:08:55.43 = 23612551 samples = 40157.4 CDDA sectors
File Size : 21.6M
Bit Rate : 323k
Sample Encoding: MPEG audio (layer I, II or III)
Comments :
Title=Children of the Rain
Artist=PHI
Album=Cycles
Tracknumber=01/06
Year=2018
Genre=Progressive Rock
Discnumber=1/1

[/more]

Register
(8) csgmnk, dimitriusk, marilin, Mogozoz, Rosen, varlam4, wreak, Yarri,
Mar 20 2018, 16:41:33 The Aurora Project - World Of Grey (2016)


*Artist: The Aurora Project
*Album: World Of Grey
*Year: 2016
*Genre: Progressive Metal
*Country: Netherlands
*Format: mp3@CBR320kbps
*Size: 123MB

Tracklist:
01. Expect Us 05:37
02. Warmongers 08:18
03. Stone Eagle 07:02
04. Deadly Embrace 06:26
05. Media Puppets 04:47
06. World Of Grey 06:33
07. Circles In The Water 09:03
08. Dronewars 07:51
******************************
Total playing time: 55:37

[more=Extended info][youtube]ev9raPjezYs[/youtube][/more]

[more=Technical info]
Input File: 02. Warmongers.mp3
Channels : 2
Sample Rate : 44100
Precision : 16-bit
Duration : 00:08:18.65 = 21990421 samples = 37398.7 CDDA sectors
File Size : 20.0M
Bit Rate : 321k
Sample Encoding: MPEG audio (layer I, II or III)
Comments :
Title=Warmongers
Artist=The Aurora Project
Album=World Of Grey
Tracknumber=2
Year=2016
Genre=Progressive Metal

[/more]

Register
(11) AHBAnep, csgmnk, ctulhudagon, Foneg, infiltrator, metala, Mogozoz, postal67, Rover, varlam4, wreak,
Mar 9 2018, 07:31:08 Dirty Deville - Come All Lunatics (2018)


*Artist: Dirty Deville
*Album: Come All Lunatics
*Year: 2018
*Genre: Psychedelic/Stoner Rock
*Country: United States
*Format: mp3@CBR320kbps
*Size: 117MB

Tracklist:
01. Such A Fool 06:29
02. Come All Lunatics 04:05
03. Through The Walls 04:39
04. Anything 05:06
05. Familiar 04:33
06. I'm Done 03:39
07. Compression Waves 05:02
08. Death Dream 04:33
09. Outliers 05:09
10. Odyssey 07:22
******************************
Total playing time: 50:37

[more=Extended info][youtube]u58jn8uwfMc[/youtube][/more]

[more=Technical info]
Input File: 02. Come All Lunatics.mp3
Channels : 2
Sample Rate : 44100
Precision : 16-bit
Duration : 00:04:05.60 = 10831092 samples = 18420.2 CDDA sectors
File Size : 9.92M
Bit Rate : 323k
Sample Encoding: MPEG audio (layer I, II or III)
Comments :
Title=Come All Lunatics
Artist=Dirty Deville
Album=Come All Lunatics
Tracknumber=2
Year=2018
Genre=Psychedelic Rock

[/more]

Register
(4) infiltrator, marilin, qpMM, VALERY,
Mar 9 2018, 07:29:40 The Samurai Of Prog - Archiviarum (2018)


*Artist: The Samurai Of Prog
*Album: Archiviarum
*Year: 2018
*Genre: Progressive Rock
*Country: United Nations
*Format: mp3@CBR320kbps
*Size: 164MB

Tracklist:
1. Keep the Ball Rolling (6:07)
2. Ahead of Fortune (5:16)
3. La Oscuridad (9:50)
4. Cristalli (5:24)
5. Elitropia (4:56)
6. The Sleeping Lover (8:32)
7. From This Window (10:37)
8. Ice (9:41)
9. Predawn (4:06)
10. Heroes (5:36)
******************************
Total playing time: 1:10:05

[more=Extended info][youtube]0Ss3R6q0AiE[/youtube][/more]

[more=Technical info]
Input File: 01. Keep The Ball Rolling.mp3
Channels : 2
Sample Rate : 44100
Precision : 16-bit
Duration : 00:06:07.42 = 16203354 samples = 27556.7 CDDA sectors
File Size : 14.9M
Bit Rate : 325k
Sample Encoding: MPEG audio (layer I, II or III)
Comments :
Title=Keep The Ball Rolling
Artist=The Samurai Of Prog
Album=Archiviarum
Tracknumber=1/10
Year=2018
Genre=92

[/more]

Register
(1) infiltrator,
Feb 19 2018, 17:22:44 Xanadu - The Last Sunrise (2011)


*Artist: Xanadu
*Album: The Last Sunrise
*Year: 2011
*Genre: Progressive Metal/Rock
*Country: Poland
*Format: mp3@CBR320kbps
*Size: 110MB

Tracklist:
01 Piece of Mind 3:57
02 Dark Shadows 5:27
03 Miles Away 5:01
04 Violent Dream (Part. I) 10:07
05 One Moment 6:54
06 Vicious Circle 3:52
07 The Last Sunrise 10:14
******************************
Total playing time: 45:32

[more=Extended info][youtube]A9vOj5OnI9s[/youtube][/more]

[more=Technical info]
Input File: 02. Dark Shadows.mp3
Channels : 2
Sample Rate : 44100
Precision : 16-bit
Duration : 00:05:28.52 = 14487864 samples = 24639.2 CDDA sectors
File Size : 13.2M
Bit Rate : 321k
Sample Encoding: MPEG audio (layer I, II or III)
Comments :
Title=Dark Shadows
Artist=Xanadu
Album=The Last Sunrise
Tracknumber=2/7
Year=2011
Genre=Progressive Rock

[/more]

Register
(10) csgmnk, dimitriusk, Foneg, jelly_kt, metala, Mogozoz, Rosen, varlam4, wreak, Yarri,
Feb 17 2018, 10:07:13 Critical Mass - Wasted Sentence [ep] (2009)


*Artist: Critical Mass
*Album: Wasted Sentence [ep]
*Year: 2009
*Genre: Progressive Metal
*Country: Denmark
*Format: mp3@CBR320kbps
*Size: 55MB

Tracklist:
1. Perfect Murder 06:50
2. Dark Deception 04:53
3. State of Neglect 07:25
4. Stars 05:59
******************************
Total playing time: 25:07

Preview 1

[more=Technical info]
Input File: 01 - Perfect Murder.mp3
Channels : 2
Sample Rate : 44100
Precision : 16-bit
Duration : 00:06:50.93 = 18122189 samples = 30820 CDDA sectors
File Size : 16.4M
Bit Rate : 320k
Sample Encoding: MPEG audio (layer I, II or III)
Comments :
Title=Perfect Murder
Artist=Critical Mass
Album=Wasted Sentence
Tracknumber=01
Year=2009
Genre=Progressive Metal

[/more]

Register
(7) csgmnk, metala, Mogozoz, Rosen, spiritualdecay666, varlam4, wreak,
Feb 17 2018, 09:31:30 Advocacy - Geophobia [ep] (2017)


*Artist: Advocacy
*Album: Geophobia [ep]
*Year: 2017
*Genre: Progressive Metal
*Country: Denmark
*Format: mp3@CBR320kbps
*Size: 57MB

Tracklist:
01. Geophobia (2:46)
02. The Believer (6:31)
03. Shattered Skies (6:28)
04. When Hate Subsides (5:25)
05. Never Ensured (4:31)
******************************
Total playing time: 25:39



[more=Technical info]
Input File: 01 - Geophobia.mp3
Channels : 2
Sample Rate : 44100
Precision : 16-bit
Duration : 00:02:46.29 = 7333301 samples = 12471.6 CDDA sectors
File Size : 6.68M
Bit Rate : 322k
Sample Encoding: MPEG audio (layer I, II or III)
Comments :
Title=Geophobia
Artist=Advocacy
Album=Geophobia
Tracknumber=1/5
Year=2017
Genre=9

[/more]

Register
(8) aviacademy, csgmnk, metala, Mogozoz, Rosen, spiritualdecay666, varlam4, wreak,
Nov 20 2017, 17:32:56 Sole Remedy - The Wounded Ones (2008)


*Artist: Sole Remedy
*Album: The Wounded Ones
*Year: 2008
*Genre: Progressive/Gothic Metal
*Country: Finland
*Format: mp3@VBR246kbps
*Size: 101MB

Tracklist:
1. Human Weakness 08:52
2. Deep End 06:18
3. Bitter Promise 06:04
4. Home ? 06:57
5. (W)hole 05:15
6. ...Broken... 02:05
7. The Wounded Ones 04:37
8. A Dosage of Emptiness 06:46
9. Disappeared 08:23
******************************
Total playing time: 55:17

[more=Extended info][youtube]oyrdWcG8MT4[/youtube][/more]

Register
(9) Buregon, Cartman223, csgmnk, metala, Mogozoz, Old Vyaine, Rosen, Rover, varlam4,
May 21 2017, 17:29:24 Lonely Robot - The Big Dream (2017)


*Artist: Lonely Robot
*Album: The Big Dream
*Year: 2017
*Genre: Progressive Rock
*Country: United Kingdom
*Format: mp3@CBR320kbps
*Size: 169MB

Tracklist:
01. Prologue (Deep Sleep) 02:18
02. Awakenings 05:18
03. Sigma 05:08
04. In Floral Green 05:18
05. Everglow 05:04
06. False Lights 05:36
07. Symbolic 05:09
08. The Divine Art Of Being 05:40
09. The Big Dream 08:01
10. Hello World Goodbye 03:57
11. Epilogue (Sea Beams) 02:54
Bonus Tracks:
12. In Floral Green (Acoustic Version) 05:18
13. The Divine Art Of Being (Acoustic Version) 05:40
14. Why Do We Stay? 05:15
******************************
Total playing time: 1:10:41



[more=Technical info]
Input File: 03. Sigma.mp3
Channels : 2
Sample Rate : 44100
Precision : 16-bit
Duration : 00:05:08.26 = 13594090 samples = 23119.2 CDDA sectors
File Size : 12.4M
Bit Rate : 321k
Sample Encoding: MPEG audio (layer I, II or III)
Comments :
Title=Sigma
Artist=Lonely Robot
Album=The Big Dream
Tracknumber=3
Year=2017
Genre=Progressive Rock

[/more]

Register
(3) Death84, MetalW, veselchak_u,
Apr 9 2017, 07:34:08 Royal Thunder - Wick (2017)
Послушал этот альбом и скачал всю дискографию группы, решил ознакомиться.
(1) avkruchinin,
Feb 18 2017, 09:08:38 Immolation - Atonement (2017)
Третий трек это как бульдозер по черепам (сразу вспомнилась картинка из Терминатора), начинается со среднетемпового дэта (видимо подготавливает неподготовленного слушателя), а потом такая возня начинается бронебойная чередующаяся с рваным соло, думаю трэк альбома. В целом по сабжу. Являясь поклонником творчества данного коллектива, что отражается в моем нике, звук на этом альбоме, даже при таком качестве, стал более не то-что плотным, мощным что-ли, очень отличается от предыдущего альбома. Хочется, чтобы не только ты один радовался данному опусу, а еще и твои любимые соседи, врубить акустику чтоб монолит рушился. У меня на третьем заходе не выдержала доча, прибежала папа сделай потише, я думал жена будет, но нет выдержала, сын сжимая кулаки делал вид, что учит уроки. Короче альбом не для наушников...This is true death metal, you bastards
(3) aserius, Bitchkiller, Lux,
Jan 26 2017, 19:34:57 Kreator - Gods Of Violence (2017)
Вот вроде сделано все качественно, но не интересно слушать, какая-то жвачка. Раньше у Kreatora песни как-то запоминались, такие боевики как Flag of Hate, Riot of Violence, Behind the Mirror, Extreme Aggression и Coma of Souls эти два альбома вообще наизусть знаю. На экспериментальных альбомах Креатора есть интересные композиции которые врезались в башку в далеких 90-х те же Winter Martyrium, Europe After the Rain, Phobia. Да та же Endorama с Тило Вульфом прошла и запомнилась. Но вот что удивительно начиная с Enemy of God спроси меня хоть про одну песню запомнившуюся с альбома - а мне и назвать нечего. Такое ощущение, что копируют сами себя из альбома в альбом, те же самые рифы только поставленные на другие лады.
(4) aesteticvice, DMIYUR, nagval, vosmidesijatye,
Dec 14 2015, 18:56:41 Сергей Маврин - Echoes (2015)
Последнее че было у Константиныча нормальное это Откровение (2006), когда на этом альбоме был представлен молодой вокалист Андрей Лефлер. Чёт после него ничего не цепляет.
(1) Fess,
Sep 30 2015, 19:38:34 Fever Ray - Fever Ray (2009) (1) DMIYUR,
Sep 26 2015, 06:30:42 Рогатые Трупоеды - Отруби Лихую Голову [ep] (2015)
ЦИТАТА(Synthaeon @ Sep 26 2015, 00:08:57) *
про ворону давно уже было у какой-то группы. не помню у какой

Черная Метка - Пластилиновая ворона (Cover Metallica - Whiskey In a Jar) 2005 год
(4) Diflock, infiltrator, metadeat, Synthaeon,
Sep 6 2015, 07:08:34 Slayer - Repentless (2015)
Интересно выстроен порядок песен. С первой все понятно. Вторая начинается и тут я подумал вот оно назад в восьмидисятые, третья все убило и началось соплежуйство вплоть до середины восьмой Impaled. Ну а дальше понеслась Слереевская злость, вот если бы весь альбом был выдержан в духе песни Repentles, а так ну да, ну Slayer, в машине можно будет погонять.
(3) 6666666, infiltrator, vosmidesijatye,
Aug 15 2015, 09:21:32 Pyogenesis - A Century In The Curse Of Time (2015)
Альбом понравился, слушайте и никого не слушайте.
(2) infiltrator, paganheart,
Apr 23 2015, 17:00:24 Unleashed - Dawn Of The Nine (2015)
ЦИТАТА(zolotoiskatel @ Apr 23 2015, 17:25:41) *
Какая неожиданность....

Почему неожиданность single же был,вот
(1) RENыч,

5 Pages V   1 2 3 > » 
- Lo-Fi Version Support form
Copyrights and abuse reports form
Time is now: 16th January 2019 - 21:16:29