Welcome Guest ( Log In | Register )

История благодарностей участнику simonitro ::: Спасибо сказали: 239 раз(а)
Дата поста: В теме: За сообщение: Спасибо сказали:
Sep 6 2019, 14:31:18 The Raven Age - Darkness Will Rise (2017)


*Artist: The Raven Age
*Album: Darkness Will Rise
*Year: 2017
*Genre: Melodic Groove Metal
*Country: United Kingdom
*Format: mp3@CBR320kbps
*Size: 172MB

Tracklist:
1. The Darkness Will Rise 01:13
2. Promised Land 06:13
3. Age of the Raven 05:36
4. The Death March 04:50
5. Salem's Fate 07:22
6. The Merciful One 05:12
7. Eye Among the Blind 06:05
8. Winds of Change 06:09
9. Trapped Within the Shadows 06:54
10. My Revenge 06:00
11. The Dying Embers of Life 05:36
12. Angel in Disgrace 05:29
13. Behind the Mask 08:15
******************************
Total playing time: 1:14:54

[more=Technical info]
Input File: 02_the_raven_age_promised_land.mp3
Channels : 2
Sample Rate : 44100
Precision : 16-bit
Duration : 00:06:13.26 = 16460810 samples = 27994.6 CDDA sectors
File Size : 15.2M
Bit Rate : 325k
Sample Encoding: MPEG audio (layer I, II or III)
Comments :
Title=Promised Land
Artist=The Raven Age
Album=Darkness Will Rise
Tracknumber=2
Year=2017
Genre=Alt.Metal / Melodic Metalcore

[/more]

Register
(11) artscald, chipsgott, Herrant, infiltrator, infozahist, metalwoman, Mogozoz, Olethros, Rosen, valafar, wreak,
Sep 3 2019, 05:23:21 Seiren - Under The Blue Wave [ep] (1991)


*Artist: Seiren
*Album: Under The Blue Wave [ep]
*Year: 1991
*Genre: Heavy Metal/Hard Rock
*Country: Japan
*Format: mp3@CBR320kbps
*Size: 45MB

Tracklist:
1. Madness in the Dark 04:24
2. Last Song 04:51
3. For Your Dream 05:20
4. Holy Night 05:52
******************************
Total playing time: 20:27

[more=Technical info]
Input File: 01_seiren_madness_in_the_dark.mp3
Channels : 2
Sample Rate : 48000
Precision : 16-bit
Duration : 00:04:23.67 = 12656016 samples ~ 19775 CDDA sectors
File Size : 10.6M
Bit Rate : 322k
Sample Encoding: MPEG audio (layer I, II or III)
Comments :
Title=Madness In The Dark
Artist=Seiren
Album=Under The Blue Wave
Tracknumber=1
Year=1991
Discnumber=1

[/more]

Register
(7) artscald, infiltrator, Mogozoz, Olethros, Rosen, Rover, wreak,
Aug 20 2019, 20:38:50 X-RATED 6ex6ex6ex - Woodland Belt [Deadly Trap] (2008) (1) Golfzilla,
Aug 12 2019, 05:49:05 Epitaph - Black Hole Effect (2014)


*Artist: Epitaph
*Album: Black Hole Effect
*Year: 2014
*Genre: Power Metal
*Country: Taiwan
*Format: mp3@CBR128kbps
*Size: 24MB

Tracklist:
1. Intro 00:31
2. Fate Repelled 03:58
3. Grave Dance 04:06
4. The Raven 03:56
5. The Death of Pluto 03:38
6. Channel No. 9 06:00
7. Le Testament de Montmarte 04:51
******************************
Total playing time: 27:00

[more=Technical info]
Input File: 1-2 - Fate Repelled.mp3
Channels : 2
Sample Rate : 44100
Precision : 16-bit
Duration : 00:03:58.52 = 10518908 samples = 17889.3 CDDA sectors
File Size : 3.68M
Bit Rate : 123k
Sample Encoding: MPEG audio (layer I, II or III)
Comments :
Title=Fate Repelled
Artist=Epitaph
Album=Black Hole Effect
Tracknumber=2/7
Year=2014
Genre=Heavy Rock & Metal
Discnumber=1

[/more]

Register
(9) artscald, boby9052, gwar, infiltrator, metalwoman, Olethros, Rosen, sergsazan, Сварог Барг,
Jul 25 2019, 06:38:42 Gnosis Oscuridad Caos - Gnosis Oscuridad Caos (2019)


*Artist: Gnosis Oscuridad Caos
*Album: Gnosis Oscuridad Caos
*Year: 2019
*Genre: Black/Thrash Metal
*Country: Colombia
*Format: mp3@CBR320kbps
*Size: 118MB

Tracklist:
1. Schzn 01:26
2. Al final de un sueño cósmico 05:01
3. A la sombra de apep 06:32
4. Abstracción onírica 04:45
5. 1011 04:21
6. Un extraño en este mundo 05:19
7. Intemporal 05:22
8. Perversión divina 04:31
9. Pacto 1 10:59
10. 1101 04:20
******************************
Total playing time: 52:36

[more=Technical info]
Input File: 2. Al Final De Un Sueño Cósmico.mp3
Channels : 2
Sample Rate : 44100
Precision : 16-bit
Duration : 00:05:01.76 = 13307484 samples = 22631.8 CDDA sectors
File Size : 12.2M
Bit Rate : 323k
Sample Encoding: MPEG audio (layer I, II or III)
Comments :
Title=Al Final De Un Sueño Cósmico
Artist=Gnosis Oscuridad Caos
Album=Gnosis Oscuridad Caos
Tracknumber=2
Genre=Black/Thrash Metal

[/more]

Register
(10) Asketto, atavist, avather, boby9052, infiltrator, Kalnasra, kim666, koc1, vasiljev_sergej, wgs73,
Jun 24 2019, 17:24:30 Steam - Can't Get Enough (1984)


*Artist: Steam
*Album: Can't Get Enough
*Year: 1984
*Genre: Heavy Metal
*Country: Germany
*Format: mp3@CBR320kbps
*Size: 65MB

Tracklist:
1. Can't Get Enough 04:51
2. Keep Rockin' 02:33
3. Goodbye 05:52
4. Bad Guys 03:18
5. I Don't Know 03:54
6. Need a Lawyer 03:53
7. It's Not Easy 04:19
8. Boogie Woogie Baby 03:52
******************************
Total playing time: 32:32

[more=Technical info]
Input File: 1. Can\'t Get Enough.mp3
Channels : 2
Sample Rate : 44100
Precision : 16-bit
Duration : 00:04:39.31 = 12317527 samples = 20948.2 CDDA sectors
File Size : 11.4M
Bit Rate : 328k
Sample Encoding: MPEG audio (layer I, II or III)
Comments :
Title=Can't Get Enough
Artist=Steam [Germany]
Album=Can't Get Enough
Tracknumber=01
Year=1984
Genre=Hard Rock
Discnumber=666

[/more]

Register
(10) artscald, avkruchinin, Diflock, infiltrator, metala, Rosen, sergsazan, stumpheavyrock, Svafrlami, wgs73,
Jan 13 2019, 05:24:38 29Jaguar - 29Anger [demo] (2005)
Hello Gelukas,

Is there a chance for a re-upload to this release?

Thanks in advanced
Simon smile1.gif
(1) satanist666,
May 25 2018, 14:42:34 Goatwar - We Are Heretics (2005)
Hello,

Both links are down... could I request a re-upload?

Thanks
(1) dermarsoran,
Nov 23 2017, 15:04:48 Mass Mayhem - Beware The Consequences (2017)


*Artist: Mass Mayhem
*Album: Beware The Consequences
*Year: 2017
*Genre: Metalcore/Power Metal
*Country: Brazil
*Format: mp3@CBR128kbps
*Size: 37MB

Tracklist:
1. Heavy Breeze 00:39
2. Unnominated 04:38
3. Beware the Consequences 03:16
4. Whithered Light 04:44
5. Drink My Soul 03:52
6. Lies 04:30
7. Shading Life 04:09
8. Anywhere 04:44
9. Thorns 04:39
10. Mistery of Her Words 04:59
******************************
Total playing time: 40:10

Register
(2) abatehin, Rosen,
Jul 9 2017, 06:17:20 Rose - Rose [ep] (1988)


*Artist: Rose
*Album: Rose [ep]
*Year: 1988
*Genre: Heavy Metal
*Country: Japan
*Format: mp3@CBR320kbps
*Size: 29MB

Tracklist:
1. Get It Down 03:02
2. Lies in Your Eyes 05:04
3. Speed King (Deep Purple cover) 02:51
4. No Way Out 02:23
******************************
Total playing time: 13:20

[more=Extended info]Distributed by Crown.

Recording information:

Produced by Rose.
Recorded at JAM Studio, Aug.-Sep. 1988

Identifiers:

Barcode: 4988007040037[/more]

[more=Technical info]
Input File: 01 Get It Down.mp3
Channels : 2
Sample Rate : 44100
Precision : 16-bit
Duration : 00:03:01.68 = 8012264 samples = 13626.3 CDDA sectors
File Size : 7.46M
Bit Rate : 329k
Sample Encoding: MPEG audio (layer I, II or III)
Comments :
Title=Get It Down
Artist=Rose
Album=Rose
Tracknumber=01
Year=1988
Genre=Heavy Metal

[/more]

Register
(2) infiltrator, Rosen,
May 7 2017, 15:24:41 Sycopathia - Death Will Rise (2016)


*Artist: Sycopathia
*Album: Death Will Rise
*Year: 2016
*Genre: Death Metal
*Country: Portugal
*Format: mp3@CBR360kbps
*Size: 77MB

Tracklist:
1. Death Will Rise 05:55
2. Carnivorous Intentions 04:01
3. Wanted: Dead or Alive 04:23
4. The Skull Collector 05:55
5. Secrets of a Clown 02:23
6. Rampage Killing Machine 05:55
7. Atrocious Existence 04:28
8. One Tear for Every Kill 04:12
9. Carnivorous Intentions (Instrumental version) 04:01
******************************
Total playing time: 41:13

[more=Technical info]
Input File: Sychopathia - Death Will Rise - 02 Carnivorous Intentions.mp3
Channels : 2
Sample Rate : 44100
Precision : 16-bit
Duration : 00:04:01.03 = 10629467 samples = 18077.3 CDDA sectors
File Size : 7.84M
Bit Rate : 260k
Sample Encoding: MPEG audio (layer I, II or III)
Comments :
Title=Carnivorous Intentions
Artist=Sychapathia
Album=Death Will Rise
Tracknumber=2
Year=2016
Genre=22

[/more]

Register
(6) Buregon, cesar, metala, Rosen, varlam4, vyacheslav,
Dec 10 2016, 21:12:38 Hymen Of Darkness - Unholy Total Hate... Fuck You All (2006) (1) varg-38ru,
Dec 4 2016, 03:26:28 Dopehammer - West Yorkshire Slam Torture [single] (2016)


*Artist: Dopehammer
*Album: West Yorkshire Slam Torture [single]
*Year: 2016
*Genre: Brutal Death Metal
*Country: United Kingdom
*Format: mp3@CBR320kbps
*Size: 26MB

Tracklist:
1. West Yorkshire Slam Torture 11:50
******************************
Total playing time: 11:50

[more=Extended info]Owen McKinney - Everything[/more]

[more=Technical info]
Input File: Dopehammer - West Yorkshire Slam Torture - 01 West Yorkshire Slam Torture.mp3
Channels : 2
Sample Rate : 44100
Precision : 16-bit
Duration : 00:11:50.37 = 31327449 samples = 53278 CDDA sectors
File Size : 24.0M
Bit Rate : 270k
Sample Encoding: MPEG audio (layer I, II or III)
Comments :
Title=West Yorkshire Slam Torture
Artist=Dopehammer
Album=West Yorkshire Slam Torture
Tracknumber=1
Year=2016

[/more]

Register
(6) artscald, Hell_Is_Here, maochen, morbidangelo, Rosen, SymbyoticEntity,
Nov 24 2016, 01:24:30 Ebola - Colombia Amarga (2015)


*Artist: Ebola
*Album: Colombia Amarga
*Year: 2015
*Genre: Death/Black/Thrash Metal
*Country: Colombia
*Format: mp3@CBR260kbps
*Size: 51MB

Tracklist:
1. Payaso maldito 03:14
2. Todos los caminos 04:16
3. Los muros del templo 03:07
4. Desilución 04:03
5. La última vida 03:33
6. Días 03:39
7. C.A.R.L 02:55
8. Hancel y Gretel 02:38
******************************
Total playing time: 27:25

[more=Extended info]Band line-up:

Fabian Pino (Ebola Zaire) Drums
Ever Arango (Ebola Sudan) Bass
Sebastian Martínez Vocals (lead)
Edwin Barrangàn (Niwdeyen) Guitars
Carlos Salazar (Ebola Tai Foresth) Guitars[/more]

Register
(14) Hell_Is_Here, jollo, metala, METALHUNTER, MMMMM, morbidangelo, Rosen, SymbyoticEntity, VALERY, varlam4, vov7609, vyacheslav, wgs73, wtk.412,
Oct 23 2016, 16:17:51 Rami - Aspiration (2016)


*Artist: Rami
*Album: Aspiration
*Year: 2016
*Genre: Heavy/Power Metal
*Country: Japan
*Format: mp3@CBR320kbps
*Size: 98MB

Tracklist:
1. Overture to Aspiration 02:59
2. In My Eyes 06:35
3. Secret Flame 04:06
4. Forever Precious 07:22
5. Sing for You 03:40
6. 恋しさと せつなさと 心強さと03:59
7. Pray to the Sky 07:02
8. Rainwater 04:52
******************************
Total playing time: 40:35

[more=Extended info]Rami Vocals (2016-present)
See also: Raglaia, ex-Aldious, ex-Galdious (live)[/more]

[more=Technical info]
Input File: 02. In My Eyes.mp3
Channels : 2
Sample Rate : 44100
Precision : 16-bit
Duration : 00:06:35.44 = 17439080 samples = 29658.3 CDDA sectors
File Size : 16.5M
Bit Rate : 333k
Sample Encoding: MPEG audio (layer I, II or III)
Comments :
Title=In My Eyes
Artist=Rami
Album=Aspiration
Tracknumber=02/08
Year=2016

[/more]

Register
(10) aviacademy, Devourer, gwynnbleid, Mogozoz, morbidangelo, northerking, Rosen, Spork, varlam4, watasan,
Oct 22 2016, 17:14:59 Fate Gear - A Light In The Black (2015)


*Artist: Fate Gear
*Album: A Light In The Black
*Year: 2015
*Genre: Heavy/Power Metal
*Country: Japan
*Format: mp3@CBR320kbps
*Size: 77MB

Tracklist:
1. Machinary Angel 01:29
2. Fate Gear 04:06
3. MEGABULLETS 03:59
4. 黎明 04:39
5. Romancer (Original) 04:15
6. Deathless Memories 04:02
7. Nocturnal Moon 04:42
8. Winds of Fall (Original) 04:20
9. 沫雪の祈り 04:57
******************************
Total playing time: 36:29

[more=Extended info]CD - RIP[/more]

[more=Technical info]
Input File: 02 Fate Gear.mp3
Channels : 2
Sample Rate : 44100
Precision : 16-bit
Duration : 00:04:06.18 = 10856406 samples = 18463.3 CDDA sectors
File Size : 9.91M
Bit Rate : 322k
Sample Encoding: MPEG audio (layer I, II or III)
Comments :
Title=Fate Gear
Artist=FATE GEAR
Album=A Light in the Black
Tracknumber=2/9
Year=2015
Genre=9
Discnumber=1/1

[/more]

Register
(8) aviacademy, catbert, csgmnk, gwynnbleid, morbidangelo, Rosen, v.v.m, varlam4,
Oct 22 2016, 01:36:52 Eilera - Face Your Demons (2016)


*Artist: Eilera
*Album: Face Your Demons
*Year: 2016
*Genre: Gothic Metal
*Country: France
*Format: mp3@CBR320kbps
*Size: 89MB

Tracklist:
1. Face Your Demons 04:00
2. Your Way 04:13
3. Deadly Together 03:55
4. Angel Made Temptress 03:17
5. Frozen Path 04:26
6. Polynia 05:31
7. Cure 04:53
8. Into the Sea 04:22
9. Male/Female Balance 03:54
10. Protect You 03:43
******************************
Total playing time: 42:14

[more=Extended info]Recording information:

Produced, mixed and mastered at Finnvox Studios.[/more]

[more=Technical info]
Input File: 01. Face Your Demons.mp3
Channels : 2
Sample Rate : 44100
Precision : 16-bit
Duration : 00:04:00.40 = 10601816 samples = 18030.3 CDDA sectors
File Size : 9.70M
Bit Rate : 323k
Sample Encoding: MPEG audio (layer I, II or III)
Comments :
Title=Face Your Demons
Artist=Eilera
Album=Face Your Demons
Tracknumber=1
Genre=Rock
Discnumber=1

[/more]

Register
(10) avkruchinin, Cartman223, Disillusion, gwynnbleid, Jurmagund, Ludwig Hagen, Rosen, VALERY, varlam4, zhuyao,
Aug 31 2016, 20:21:30 Dopehammer - Artificial Enresination (2016)


*Artist: Dopehammer
*Album: Artificial Enresination
*Year: 2016
*Genre: Brutal Death Metal
*Country: United Kingdom
*Format: mp3@CBR320kbps
*Size: 72MB

Tracklist:
1. Return to the 36 Hammers 03:48
2. Mutton Dressed as Slam 04:08
3. In Bluntest Night 02:51
4. When Keeping It Real Goes Wrong 03:36
5. Involuntary Rectal Punishment 03:11
6. The Curse of Zootankhamun 03:08
7. Human Body Parts for Incineration 02:43
8. Glutinous Cranial Chunks 02:56
9. Under a Strake of Dyseptic Sky 03:15
10. Cop Killer 04:37
******************************
Total playing time: 34:13

[more=Technical info]
Input File: Dopehammer - Artificial Enresination - 01 Return To The 36 Hammers.mp3
Channels : 2
Sample Rate : 44100
Precision : 16-bit
Duration : 00:03:48.88 = 10093784 samples = 17166.3 CDDA sectors
File Size : 7.78M
Bit Rate : 272k
Sample Encoding: MPEG audio (layer I, II or III)
Comments :
Title=Return To The 36 Hammers
Artist=Dopehammer
Album=Artificial Enresination
Tracknumber=1
Year=2016

[/more]

Register
(13) artscald, Hell_Is_Here, jollo, maochen, metala, MMMMM, morbidangelo, Pinhead666, Rosen, SymbyoticEntity, varlam4, vyacheslav, Герб,
May 1 2016, 17:15:41 Dopehammer - Scatalogical Erotic Perversionment (2016)


*Artist: Dopehammer
*Album: Scatalogical Erotic Perversionment
*Year: 2016
*Genre: Brutal Death Metal
*Country: United Kingdom
*Format: mp3@CBR320kbps
*Size: 39MB

Tracklist:
1. Stoner Slam CVLT 01:45
2. Reign in Bud 03:33
3. Doctrine of Abuse 02:47
4. Lesbian Party Mallet 02:41
5. xM.I.Ax (Missing in Alcohol) 03:13
6. Cuddles, Rainbows and Overhead Smash 03:22
******************************
Total playing time: 17:21

[more=Extended info]"Omniscient" Owen Everything (2015-present)[/more]

[more=Technical info]
Input File: 2. Reign in Bud.mp3
Channels : 2
Sample Rate : 48000
Precision : 16-bit
Duration : 00:03:34.01 = 10272384 samples ~ 16050.6 CDDA sectors
File Size : 8.62M
Bit Rate : 322k
Sample Encoding: MPEG audio (layer I, II or III)
Comments :
Title=Reign in Bud
Artist=DopeHammer
Album=Scatalogical Erotic Perversionment
Tracknumber=2/6
Year=2016
Genre=Brutal Death Metal

[/more]

Register
(4) artscald, grobator, Rosen, varlam4,
Feb 28 2016, 19:23:43 Having problems downloading from RGhost
QUOTE(vosmidesijatye @ Feb 28 2016, 22:17:56) *
I have to translate - Soon Rghost will be dead due to DDos-attacks. In the nearest future we will use WDfiles hosting instead of it.


Thanks for translating.

So, I'm not the only one that have been experiencing this. Oh well, WDfiles seems like a better host but still haven't tried it.
(1) vosmidesijatye,
Jan 1 2016, 18:21:53 Dopehammer - Smoke Weed Worship Slam (2015)


*Artist: Dopehammer
*Album: Smoke Weed Worship Slam
*Year: 2015
*Genre: Brutal Death Metal
*Country: United Kingdom
*Format: mp3@CBR320kbps
*Size: 73MB

Tracklist:
1. Intro for Life 01:43
2. Quadriplegic Porno Party 02:31
3. Empire of Maggots 03:29
4. Squirt Bukkake Landslide 03:01
5. Green, Eggs and Slam 03:51
6. Decapitated Head Selfie 03:16
7. Travelodge Abortion 04:22
8. The Chronic Spawn 04:37
9. We're All Badmen, We're All Gangsters, Mum What's for Tea? 05:30
******************************
Total playing time: 32:20

[more=Technical info]
Input File: 1. Intro for Life.mp3
Channels : 2
Sample Rate : 48000
Precision : 16-bit
Duration : 00:01:43.23 = 4954896 samples ~ 7742.03 CDDA sectors
File Size : 4.13M
Bit Rate : 320k
Sample Encoding: MPEG audio (layer I, II or III)
Comments :
Title=Intro for Life
Artist=Dopehammer
Album=Smoke Weed Worship Slam
Tracknumber=1
Year=2015

[/more]

Register
(3) artscald, Rosen, varlam4,
Nov 9 2015, 16:15:34 The Nothing - How To Avoid Heaven (2006)
Please re-up, thanks in advanced
(1) Tino,
Nov 9 2015, 16:14:26 The Nothing - Coma Poems (1995)
Hey, can anyone please re-up this?

Thanks in advanced
(1) Tino,
Sep 22 2015, 21:39:29 Xylonite Ivy - No. IX: Thou Shalt Not Bear False Witness Against Thy Neighbor (2015)
Hey, I'm not sure who is this band but damn are they good?

They have such a unique sound that I'm enjoying. Thanks for the share, buddy!

smile1.gif
(1) Ludwig Hagen,
Aug 9 2015, 16:32:55 Rescue - Rescue (1989)
QUOTE(Nekromansiya @ Aug 9 2015, 16:21:47) *
can anyone please reupload this? thank you in advance!


Certainly, here ya go!

http://rusfolder.com/44056831

Enjoy... it's 192kbps but still, it's a good quality. smile1.gif
(1) Nekromansiya,

3 Pages V   1 2 3 >
- Lo-Fi Version Support form
Copyrights and abuse reports form
Time is now: 10th December 2019 - 16:43:56