Welcome Guest ( Log In | Register )

История благодарностей участнику HowlingSpirit ::: Спасибо сказали: 467 раз(а)
Дата поста: В теме: За сообщение: Спасибо сказали:
Jul 12 2019, 11:26:01 Vintlechkeit - Vi Drømmer Om Stjernene Hvor Gudene Sovnet .​.​. [demo] (2019)


*Artist: Vintlechkeit
*Album: Vi Drømmer Om Stjernene Hvor Gudene Sovnet .​.​. [demo]
*Year: 2019
*Genre: Atmospheric Raw Ambient Black Metal
*Country: Norway
*Format: mp3@CBR320kbps
*Size: 70MB

Tracklist:
1. Storm Kommer...
2. Nær stjernene...
3. Drømmer...
******************************
Total playing time: 30:46



[more=Technical info]
Input File: 01 Storm kommer.mp3
Channels : 2
Sample Rate : 44100
Precision : 16-bit
Duration : 00:11:45.50 = 31112726 samples = 52912.8 CDDA sectors
File Size : 28.2M
Bit Rate : 320k
Sample Encoding: MPEG audio (layer I, II or III)
Comments :
Title=Storm Kommer...
Artist=Vintlechkeit
Album=Vi drømmer om stjernene hvor gudene sovnet ... (demo)
Tracknumber=1
Year=2019
Genre=Atmospheric Raw Black Metal

[/more]

Register
(19) 1968_janeart, aleon, artscald, autumnwood, blacky66, cancer1974, heinz88, kim666, Matthew008, murian, Olethros, robertho777, Rosen, SilentNidhogg, Sjelekval, stub888, Surt, waltergehtwahlen, wreak,
Jun 15 2019, 12:04:08 Vintlechkeit & Wintaar - Vintlechkeit/Wintaar [split] (2019)


*Artist: Vintlechkeit & Wintaar
*Album: Vintlechkeit/Wintaar [split]
*Year: 2019
*Genre: Atmospheric Raw Ambient Black Metal | Atmospheric Raw Black Metal
*Country: Norway | Russian Federation
*Format: mp3@CBR320kbps
*Size: 49MB

Tracklist:
1. Vintlechkeit - Norgelandskap
2. Wintaar - Похороненный в тысяче зим
******************************
Total playing time: 21:11



[more=Technical info]
Input File: Wintaar - Похороненный В Тысяче Зим.mp3
Channels : 2
Sample Rate : 44100
Precision : 16-bit
Duration : 00:08:12.41 = 21715237 samples = 36930.7 CDDA sectors
File Size : 19.7M
Bit Rate : 320k
Sample Encoding: MPEG audio (layer I, II or III)

[/more]

Register
(19) 1968_janeart, ahp, artscald, cancer1974, kim666, Lanceatum, lestllk, NappyRob, nemx, Ostinato, robertho777, Rosen, SilentNidhogg, vasiljev_sergej, Wizard_in_Black, wreak, ZA670, zargonath, Козлотролль,
Jun 5 2019, 11:41:52 Beyond The Grave - Veneration Of Corpses (2019)


*Artist: Beyond The Grave
*Album: Veneration Of Corpses
*Year: 2019
*Genre: Black Metal
*Country: Russian Federation
*Format: mp3@CBR320kbps
*Size: 91MB

Tracklist:
1. Anhedonia
2. The Castle Of Cachtice
3. Liberation From Flesh
4. Adoration Of Depravity
5. Veneration Of Corpses
6. Into The Nightside
7. Devouring Hellfire
8. Old Ones
******************************
Total playing time: 41:16

[more=Technical info]
Input File: 01 Anhedonia.mp3
Channels : 2
Sample Rate : 44100
Precision : 16-bit
Duration : 00:02:08.69 = 5675053 samples = 9651.45 CDDA sectors
File Size : 5.15M
Bit Rate : 320k
Sample Encoding: MPEG audio (layer I, II or III)
Comments :
Title=Anhedonia
Artist=Beyond The Grave
Album=Veneration of Corpses
Tracknumber=1
Year=2019
Genre=Black Metal

[/more]

Register
(27) 1968_janeart, andivi, Boozer, Chasm, cist, Dark Sage, DarkHorde, GorAtheist, Hell_Is_Here, juand, judaz, kim666, Lanceatum, lestllk, Oath19, Old Vyaine, oldvarg, Olethros, Ostinato, rickzammuto, robertho777, Rosen, SilentNidhogg, VALERY, vasiljev_sergej, wreak, xska,
Jun 5 2019, 11:33:12 Nattfog - Pohjan Porteilta [compilation] (2019)


*Artist: Nattfog
*Album: Pohjan Porteilta [compilation]
*Year: 2019
*Genre: Black Metal
*Country: Finland
*Format: mp3@CBR320kbps
*Size: 103MB

Tracklist:
1. Night of the Ancient Rites
2. Tietäjä
3. Pohjan porteilta
4. Yöni usvassa
5. Ancestral Echoes
6. Yön varjoista...
7. Ikiroudan laaksossa
******************************
Total playing time: 47:34

[more=Technical info]
Input File: 01 Night of the Ancient Rites.mp3
Channels : 2
Sample Rate : 44100
Precision : 16-bit
Duration : 00:06:29.63 = 17182551 samples = 29222 CDDA sectors
File Size : 15.6M
Bit Rate : 320k
Sample Encoding: MPEG audio (layer I, II or III)
Comments :
Title=Night of the Ancient Rites
Artist=Nattfog
Album=Pohjan porteilta
Tracknumber=1
Year=2019
Genre=Pagan Black Metal

[/more]

Register
(28) 1968_janeart, ALBIGON, andivi, Boozer, dalex, dim0ntius, Hell_Is_Here, Ildjarn, kim666, Korpse, Lamby90, lestllk, Old Vyaine, Olethros, Orkkh, Ostinato, Ramcheg1981, rickzammuto, robertho777, Rosen, SilentNidhogg, SlimBZ, stub888, thenecromancer, VALERY, vasiljev_sergej, wreak, Абигор,
Feb 5 2019, 13:43:18 Vinterkälte - Vinterkälte (Part I) (2019)


*Artist: Vinterkälte
*Album: Vinterkälte (Part I)
*Year: 2019
*Genre: Raw Atmospheric Black Metalambient
*Country: Sweden
*Format: mp3@CBR320kbps
*Size: 44MB

Tracklist:
1.Into Vinterkälte
2.I
******************************
Total playing time: 19:54

Preview 1

[more=Technical info]
Input File: 01 Into Vinterkalte.mp3
Channels : 2
Sample Rate : 44100
Precision : 16-bit
Duration : 00:03:58.22 = 10505370 samples = 17866.3 CDDA sectors
File Size : 9.53M
Bit Rate : 320k
Sample Encoding: MPEG audio (layer I, II or III)
Comments :
Title=Into Vinterkalte
Artist=Vinterkälte
Album=Vinterkälte (Part I)
Tracknumber=1
Year=2019
Genre=Raw Atmospheric Black Metal

[/more]

Register
(22) artscald, Daale, kim666, Krosis, metaljinie, NachtWulf, NappyRob, Olethros, Ostinato, PerYngveOhlin, Razorbladeswaltz, Rosen, satanist666, SilentNidhogg, simonalacacarisa, Sjelekval, stub888, Tarkron, udt4050, varlam4, vasiljev_sergej, ZA670,
Jan 16 2019, 11:10:34 Wintaar
Вот ссылки на скачивание недостающих моментов в дискографии
Register



Спасибо за оформление оной 25.gif
(3) artscald, thenecromancer, vosmidesijatye,
Aug 6 2018, 10:54:34 Mierr & Vintlechkleit - Kald... [split] (2018)


*Artist: Mierr & Vintlechkleit
*Album: Kald... [split]
*Year: 2018
*Genre: Atmospheric Folk Black Metal | Atmospheric Folk Black Metal
*Country: Russian Federation | Norway
*Format: mp3@CBR320kbps
*Size: 151MB

Tracklist:
1. Mierr - Epitaph for the Cold
2. Mierr - Gone Astray
3. Vintlechkeit - Kraften av is
4. Vintlechkeit - Den nådeløs vinter
5. Vintlechkeit - Verden etter solens død
******************************
Total playing time: 1:05:59



[more=Technical info]
Input File: 01 Mierr - Epitaph for the Cold.mp3
Channels : 2
Sample Rate : 44100
Precision : 16-bit
Duration : 00:18:22.49 = 48619941 samples = 82687 CDDA sectors
File Size : 44.1M
Bit Rate : 320k
Sample Encoding: MPEG audio (layer I, II or III)
Comments :
Title=Epitaph for the Cold
Artist=Mierr
Album=Kald... (split)
Tracknumber=1
Year=2018
Genre=Atmospheric Black

[/more]

Register
(6) Alexis The Best, Cartman223, kim666, nemx, satanist666, varg-38ru,
Aug 6 2018, 10:48:33 Vintlechkleit - Evig Og Mork Vinter​.​.​. [demo] (2018)


*Artist: Vintlechkleit
*Album: Evig Og Mork Vinter​.​.​. [demo]
*Year: 2018
*Genre: Atmospheric Raw Black Metal
*Country: Norway
*Format: mp3@CBR320kbps
*Size: 40MB

Tracklist:
01 Evig Og Mork Vinter​.​.​.
******************************
Total playing time: 16:29



[more=Technical info]
Input File: Vintlechkeit - Evig Og Mork Vinter... (demo) - 01 Evig Og Mork Vinter....mp3
Channels : 2
Sample Rate : 44100
Precision : 16-bit
Duration : 00:16:29.49 = 43636685 samples = 74212 CDDA sectors
File Size : 39.7M
Bit Rate : 321k
Sample Encoding: MPEG audio (layer I, II or III)
Comments :
Title=Evig Og Mork Vinter...
Artist=Vintlechkeit
Album=Evig Og Mork Vinter... (demo)
Tracknumber=1
Year=2017

[/more]

Register
(15) 1968_janeart, cancer1974, Iscariot, kim666, Moonshtook, nemx, Ostinato, Razorbladeswaltz, Rosen, satanist666, Sjelekval, stub888, thenecromancer, varg-38ru, vasiljev_sergej,
Aug 5 2018, 08:41:23 Mierr & Vintlechkeit - Kald... [split] (2018)


*Artist: Mierr & Vintlechkeit
*Album: Kald... [split]
*Year: 2018
*Genre: Atmospheric Folk Black Metal | Atmospheric Folk Black Metal
*Country: Russian Federation | Norway
*Format: mp3@CBR320kbps
*Size: 151MB

Tracklist:
1. Mierr - Epitaph for the Cold
2. Mierr - Gone Astray
3. Vintlechkeit - Kraften av is
4. Vintlechkeit - Den nådeløs vinter
5. Vintlechkeit - Verden etter solens død
******************************
Total playing time: 1:05:59



[more=Technical info]
Input File: 02 Mierr - Gone Astray.mp3
Channels : 2
Sample Rate : 44100
Precision : 16-bit
Duration : 00:15:23.71 = 40735523 samples = 69278.1 CDDA sectors
File Size : 37.0M
Bit Rate : 320k
Sample Encoding: MPEG audio (layer I, II or III)
Comments :
Title=Gone Astray
Artist=Mierr
Album=Kald... (split)
Tracknumber=2
Year=2018
Genre=Atmospheric Black

[/more]

Register
(6) artscald, Druidir, Lanceatum, satanist666, varg-38ru, varlam4,
Aug 5 2018, 08:36:08 Vintlechkleit - Evig Og Mork Vinter​.​.​. [demo] (2017)


*Artist: Vintlechkleit
*Album: Evig Og Mork Vinter​.​.​. [demo]
*Year: 2017
*Genre: Atmospheric Raw Black Metal
*Country: Norway
*Format: mp3@CBR320kbps
*Size: 40MB

Tracklist:
01 Evig Og Mork Vinter​.​.​.
******************************
Total playing time: 16:29



[more=Technical info]
Input File: Vintlechkeit - Evig Og Mork Vinter... (demo) - 01 Evig Og Mork Vinter....mp3
Channels : 2
Sample Rate : 44100
Precision : 16-bit
Duration : 00:16:29.49 = 43636685 samples = 74212 CDDA sectors
File Size : 39.7M
Bit Rate : 321k
Sample Encoding: MPEG audio (layer I, II or III)
Comments :
Title=Evig Og Mork Vinter...
Artist=Vintlechkeit
Album=Evig Og Mork Vinter... (demo)
Tracknumber=1
Year=2017

[/more]

Register
(2) Alexis The Best, varg-38ru,
Aug 3 2018, 08:41:50 Vintlechkleit - Frostige Tåken... [demo] (2018)


*Artist: Vintlechkleit
*Album: Frostige Tåken... [demo]
*Year: 2018
*Genre: Atmospheric Black Metal
*Country: Norway
*Format: mp3@CBR320kbps
*Size: 76MB

Tracklist:
1. Vinter...
2. Trinn inn i den frostige tåken
3. Skog ensomhet
******************************
Total playing time: 33:17



[more=Technical info]
Input File: 01 Vinter.mp3
Channels : 2
Sample Rate : 44100
Precision : 16-bit
Duration : 00:11:37.88 = 30776332 samples = 52340.7 CDDA sectors
File Size : 27.9M
Bit Rate : 320k
Sample Encoding: MPEG audio (layer I, II or III)
Comments :
Title=Vinter...
Artist=Vintlechkeit
Album=Frostige Tåken... (demo)
Tracknumber=1
Year=2018
Genre=Atmospheric Black

[/more]

Register
(5) Alexis The Best, kim666, satanist666, thenecromancer, varg-38ru,
Apr 12 2018, 13:07:14 Shoggoth - Пандемия Ненависти [demo] (2004)
Register
(6) Goatrex, Moonshtook, rimfrost, sethurius, Storky, thenecromancer,
Mar 10 2018, 09:46:32 Elegiac & Wintaar - Elegiac/Wintaar [split] (2018)


*Artist: Elegiac & Wintaar
*Album: Elegiac/Wintaar [split]
*Year: 2018
*Genre: Black Metal | Black Metal
*Country: United Kingdom | Russian Federation
*Format: mp3@CBR320kbps
*Size: 75MB

Tracklist:
Elegiac:
1. Iron Wings
2. Wotan's Anguish
Wintaar:
3. Hearts Stained in Blood
4. My Cold Paths
5. In Night of the Boundary
6. Sunset
******************************
Total playing time: 34:42



[more=Technical info]
Input File: 01 Elegiac - Iron Wings.mp3
Channels : 2
Sample Rate : 44100
Precision : 16-bit
Duration : 00:07:28.28 = 19769016 samples = 33620.8 CDDA sectors
File Size : 17.9M
Bit Rate : 320k
Sample Encoding: MPEG audio (layer I, II or III)
Comments :
Title=Iron Wings
Artist=Elegiac
Album=Elegiac / Wintaar Split
Tracknumber=1
Year=2018
Genre=Black Metal

[/more]

Register
(14) artscald, infiltrator, kefka, kim666, Lanceatum, Maximvs, Moonshtook, Razorbladeswaltz, Rosen, satanist666, varg-38ru, varlam4, vasiljev_sergej, vovenom,
Dec 8 2016, 18:54:49 W - Frostland (2016)


*Artist: W
*Album: Frostland
*Year: 2016
*Genre: Atmospheric Black Metal
*Country: Russian Federation
*Format: mp3@CBR320kbps
*Size: 147MB

Tracklist:
1.Winterlight (Part III)
2.Across The Desolation
3.The Last Light Of The Moon
4.Wings
5.Burning Stars
6.Midnight Snow
7.Forgotten Hymn Of The Urals
8.To The Face Of Eternal Cold
******************************
Total playing time: 9:21



[more=Technical info]
Input File: 02 Across The Desolation.mp3
Channels : 2
Sample Rate : 44100
Precision : 16-bit
Duration : 00:10:15.37 = 27137729 samples = 46152.6 CDDA sectors
File Size : 24.6M
Bit Rate : 320k
Sample Encoding: MPEG audio (layer I, II or III)
Comments :
Title=Across The Desolation
Artist=W
Album=Frostland
Tracknumber=2
Year=2016
Genre=Atmospheric Ambient Raw Black Metal

[/more]

Register
(22) 1968_janeart, AndreFrancis, blacky66, chromeskull88, deadterror, Immortality, kim666, Korpse, oldvarg, Ostinato, Razorbladeswaltz, Rosen, RUSP73, Sanc, satanist666, svartrest, tont, VALERY, varg-38ru, varlam4, vasiljev_sergej, металлист,
Oct 12 2016, 12:50:28 Theoroth - Into Tyurendor (2016)
Так клавишные как бе доминирующий и ведущий все мелодические линии инструмент smile1.gif
(1) DarkHorde,
Oct 10 2016, 14:46:49 Unguth Vaentron - The Lair Of Warlords [ep] (2016)


*Artist: Unguth Vaentron
*Album: The Lair Of Warlords [ep]
*Year: 2016
*Genre: Epic Ambient/Dungeon Synth
*Country: Russian Federation
*Format: mp3@CBR320kbps
*Size: 59MB

Tracklist:
1. Unguth Vaentron
2. Mountains Of A Thousand Axes
******************************
Total playing time: 24:34



[more=Technical info]
Input File: 02 Mountain Of A Thousand Axes.mp3
Channels : 2
Sample Rate : 44100
Precision : 16-bit
Duration : 00:13:04.88 = 34613032 samples = 58865.7 CDDA sectors
File Size : 31.4M
Bit Rate : 320k
Sample Encoding: MPEG audio (layer I, II or III)
Comments :
Title=Mountain Of A Thousand Axes
Artist=Unguth Vaentron
Tracknumber=2
Year=2016
Genre=Dungeon Synth

[/more]

Register
(2) Amadeus, Goatrex,
Oct 7 2016, 23:24:07 Theoroth - Into Tyurendor (2016)


*Artist: Theoroth
*Album: Into Tyurendor
*Year: 2016
*Genre: Epic Atmospheric Black Metal
*Country: Russian Federation
*Format: mp3@CBR320kbps
*Size: 97MB

Tracklist:
01 Into The Northland
02 Ice Armies From The Forgotten Stronghold
03 A Land Dwells In Ice
04 Song Of Nordic Warriors
05 Inhaling The Cold
06 Road Covered By Snow
07 The Freezing Stars
******************************
Total playing time: 42:00



[more=Extended info][/more]

[more=Technical info]
Input File: 02 Ice Armies From The Forgotten Stronghold.mp3
Channels : 2
Sample Rate : 44100
Precision : 16-bit
Duration : 00:08:10.79 = 21643839 samples = 36809.2 CDDA sectors
File Size : 19.6M
Bit Rate : 320k
Sample Encoding: MPEG audio (layer I, II or III)
Comments :
Title=Ice Armies From The Forgotten Stronghold
Artist=Theoroth
Album=Into Tyurendor
Tracknumber=2
Year=2016
Genre=Atmospheric Epic Black Metal

[/more]

Register
(23) 0x13, 1968_janeart, AndreFrancis, blacky66, DarkHorde, djsema4, Forest Silence, kim666, Korpse, metala, Moonshtook, oldvarg, rom666, Rosen, Sanc, satanath, satanist666, Storky, tont, VALERY, varlam4, vasiljev_sergej, Абигор,
Jun 22 2016, 15:21:01 Theoroth - Darkness Never Fades (2016)


*Artist: Theoroth
*Album: Darkness Never Fades
*Year: 2016
*Genre: Epic Atmospheric Black Metal
*Country: Russian Federation
*Format: mp3@CBR320kbps
*Size: 71MB

Tracklist:
1. Darkness Never Fades
2. When Tales Are Just A Lie
3. Abandoned Shrine
4. Natt
5. Fading Magic
******************************
Total playing time: 30:02



[more=Technical info]
Input File: 03 Abandoned Shrine.mp3
Channels : 2
Sample Rate : 44100
Precision : 16-bit
Duration : 00:04:59.13 = 13191633 samples = 22434.8 CDDA sectors
File Size : 12.0M
Bit Rate : 320k
Sample Encoding: MPEG audio (layer I, II or III)
Comments :
Title=Abandoned Shrine
Artist=Theoroth
Album=Darkness Never Fades
Tracknumber=3
Year=2016
Genre=Epic Atmospheric Black Metal

[/more]

Register
(17) 1968_janeart, blacky66, djsema4, Druidir, kim666, Moonshtook, morbidangelo, Ostinato, rom666, Rosen, satanist666, Storky, tont, varg-38ru, varlam4, vasiljev_sergej, vosmidesijatye,
Jun 22 2016, 15:07:23 Theoroth - Wounds Of The Monumental Majesty (2016)


*Artist: Theoroth
*Album: Wounds Of The Monumental Majesty
*Year: 2016
*Genre: Epic Atmospheric Black Metal
*Country: Russian Federation
*Format: mp3@CBR320kbps
*Size: 79MB

Tracklist:
1. Through Breath Of The Battle-Horns
2. Allfather Of Dragons
3. A Vision Of Brave Old Times
4. The Remains Of Our Homes
5. We Mourned Over The Ashes Of Fires
6. Flame Of The Last Dragons
7. Wastelands
******************************
Total playing time: 31:45



[more=Technical info]
Input File: 05 We Mourned Over The Ashes Of Fires.mp3
Channels : 2
Sample Rate : 44100
Precision : 16-bit
Duration : 00:06:41.32 = 17698256 samples = 30099.1 CDDA sectors
File Size : 16.1M
Bit Rate : 320k
Sample Encoding: MPEG audio (layer I, II or III)
Comments :
Title=We Mourned Over The Ashes Of Fires
Artist=Theoroth
Album=Wounds Of The Monumental Majesty
Tracknumber=5
Year=2016
Genre=Epic Atmospheric Black Metal

[/more]

Register
(18) 0x13, 1968_janeart, djsema4, Druidir, kim666, metala, Moonshtook, morbidangelo, oldvarg, Ostinato, rom666, Rosen, satanist666, Storky, tont, varlam4, vasiljev_sergej, vosmidesijatye,
Jun 12 2016, 10:56:49 Fjörd & Drunemeton - A New Dawn Shall Rise/The Sacred Grove [split] (2016)


*Artist: Fjörd & Drunemeton
*Album: A New Dawn Shall Rise/The Sacred Grove [split]
*Year: 2016
*Genre: Folk Metal | Pagan Black Metal
*Country: Canada | Russian Federation
*Format: mp3@CBR320kbps
*Size: 164MB

Tracklist:
Fjörd:
1. One Last Flame Of Glory
2. Halls Of Valhalla
Drunemeton:
3. The Celebration
4. Song Of The Woods
5. Horned Master Of The Green Forest
6. The Sacred Grove
7. Night Fall Onto The Forest
8. Guardians Of The Green Darkness Gates
9. We Had Grown Like A Trees
10. Dark Autumn Rites
******************************
Total playing time: 1:14:13

[more=Technical info]
Input File: 03 Drunemeton - The Celebration.mp3
Channels : 2
Sample Rate : 44100
Precision : 16-bit
Duration : 00:08:01.02 = 21212762 samples = 36076.1 CDDA sectors
File Size : 19.2M
Bit Rate : 320k
Sample Encoding: MPEG audio (layer I, II or III)
Comments :
Title=The Celebration
Artist=Drunemeton
Tracknumber=3
Year=2016
Genre=Pagan Black Metal

[/more]

Register
(27) Angeldemon617, Boozer, Cartman223, Druidir, Goatrex, Ildjarn, Lanceatum, lestllk, Moonshtook, morbidangelo, Ostinato, princeshr, recber, rom666, Rosen, satanist666, singrad, stone88, talismanFS, tont, varg-38ru, varlam4, vasiljev_sergej, Velemysl, wreak, Zenial, Абигор,
Mar 10 2016, 18:14:18 Theoroth & Evilnox - A Hymn For Horned KingCursed By Bonethrone [split] (2016)


*Artist: Theoroth & Evilnox
*Album: A Hymn For Horned KingCursed By Bonethrone [split]
*Year: 2016
*Genre: Epic Atmospheric Black Metal | Medieval Dark Ambient
*Country: Russian Federation | Russian Federation
*Format: mp3@CBR320kbps
*Size: 95MB

Tracklist:
Evilnox:
1. A Hymn For Horned King. Part 1: Barbarian Woods
2. A Hymn For Horned King.Part 2: Black Winter Night
Theoroth:
3. Cursed By Bonethrone. Part 1
4. Cursed By Bonethrone. Part 2
******************************
Total playing time: 10:15




[more=Technical info]
Input File: 04 Cursed By Bonethrone Part 2.mp3
Channels : 2
Sample Rate : 44100
Precision : 16-bit
Duration : 00:07:14.94 = 19180898 samples = 32620.6 CDDA sectors
File Size : 17.4M
Bit Rate : 320k
Sample Encoding: MPEG audio (layer I, II or III)
Comments :
Title=Cursed By Bonethrone. Part 2)
Artist=Theoroth
Album=A Hymn For Horned King​​Cursed By Bonethrone (Split)
Year=2016
Genre=Epic Atmospheric Black Metal

[/more]

Register
(19) 1968_janeart, blacky66, kim666, Lanceatum, NachtWulf, Ostinato, Paatddal, Rosen, satanist666, talismanFS, tamerz, tont, VALERY, varg-38ru, varlam4, vasiljev_sergej, vosmidesijatye, wreak, Герб,
Feb 20 2016, 19:30:17 Raw Forest - Impaired Purity [promo] (2016)


*Artist: Raw Forest
*Album: Impaired Purity [promo]
*Year: 2016
*Genre: Raw Black Metal
*Country: Russian Federation
*Format: mp3@CBR256kbps
*Size: 26MB

Tracklist:
1. Embraced By Hate
2. Alcohol Trip Into The Woods
3. Wind Of Revelation
4. Winter
5. Russian Vodka (Коррозия Металла Cover)
******************************
Total playing time: 14:20

[more=Extended info]Старый проект WV (Wampyric Bloodlust, Theoroth etc.) что возродился в прошлом году.
Это промо грядущего в этом на самиздатном CD-R альбома, на котором будет почти двадцать песен и партии баса от участника проекта Ataatmath.
Концепция проекта - минимализм и экстремально-сырое, но плотное и драйвовое звучание при свободной лирической составляющей.

WV - Вокал, гитара и ударные[/more]

Register
(14) 1968_janeart, Moonshtook, morbidangelo, Paatddal, Pinhead666, rom666, Rosen, satanist666, Storky, supremo, tont, varg-38ru, varlam4, vasiljev_sergej,
Jan 29 2016, 09:22:56 Theoroth - Nights Shine In The Five Towers (2016)


*Artist: Theoroth
*Album: Nights Shine In The Five Towers
*Year: 2016
*Genre: Epic/Atmospheric Black Metal/Neoclassical Ambient
*Country: Russian Federation
*Format: mp3@CBR320kbps
*Size: 89MB

Tracklist:
1. Into The Crypt
2. The March In Darkness
3. Ashes
4. Nights Shine
5. Dark Souls
6. Calm
7. Orkmarsch (Nazgul Cover)
******************************
Total playing time: 38:56



[more=Extended info]ex-Зимний дракон

На альбоме синтезаторные треки и три (вместе с кавером) в стиле EpicAtmospheric Black.[/more]

[more=Technical info]
Input File: 03 Ashes.mp3
Channels : 2
Sample Rate : 44100
Precision : 16-bit
Duration : 00:08:20.59 = 22075843 samples = 37544 CDDA sectors
File Size : 20.0M
Bit Rate : 320k
Sample Encoding: MPEG audio (layer I, II or III)
Comments :
Title=Ashes
Artist=Theoroth
Album=Nights Shine In Five Towers
Tracknumber=3
Year=2016
Genre=EpicAtmospheric Black Metal

[/more]

Register
(12) 0x13, avather, infiltrator, kim666, metala, Rosen, satanist666, tont, varg-38ru, varlam4, vasiljev_sergej, vosmidesijatye,
Nov 12 2015, 22:42:13 Зимний Дракон - When Eternity Calls For Your Ashes, It Will Return Your True Name (2015)


*Artist: Зимний Дракон
*Album: When Eternity Calls For Your Ashes, It Will Return Your True Name
*Year: 2015
*Genre: Epic Black Metal
*Country: Russian Federation
*Format: mp3@CBR320kbps
*Size: 103MB

Tracklist:
01. Drums Of Gristengen
02. Night Prayer
03. Code Of Demons
04. Funeral Hymn Of The First Humans
05. Autumn In Castle Ruins
06. Prophecies Of The Dead Shamans
07. Chron's Sanctuary
08. Mountains
******************************
Total playing time: 45:20



[more=Technical info]
Input File: 02 Night Prayer.mp3
Channels : 2
Sample Rate : 44100
Precision : 16-bit
Duration : 00:05:34.71 = 14760667 samples = 25103.2 CDDA sectors
File Size : 13.4M
Bit Rate : 320k
Sample Encoding: MPEG audio (layer I, II or III)
Comments :
Title=Night Prayer
Artist=Çèìíèé Äðàêîí
Album=When Eternity Calls For Your Ashes, It Will Return Your True Name
Tracknumber=2
Year=2015
Genre=Epic Black Metal

[/more]

Register
(18) 0x13, 1968_janeart, AndreFrancis, Aresson, blacky66, dad, lafuma, Moonshtook, oldvarg, rom666, Rosen, satanist666, tont, VALERY, varg-38ru, varlam4, vasiljev_sergej, wreak,
Apr 26 2015, 12:18:08 Зимний Дракон - Gnashing Of The Dead Legend's Voice (2015)


*Artist: Зимний Дракон
*Album: Gnashing Of The Dead Legend's Voice
*Year: 2015
*Genre: Epic Black Metal
*Country: Russian Federation
*Format: mp3@CBR320kbps
*Size: 108MB

Tracklist:
1. Empire
2. Denethar And Night
5. Snowstorm In The Walls of Brunnhildes (instrumental)
4. Spread Of the Evil
5. Downfall
6. Winds Of the Forgotten Lands (instrumental)
7. Gates Of Death
******************************
Total playing time: 48:20

[more=Extended info]В отличии от уже выложенного на портале альбома проекта, здесь другая музыка и звук - звучание более чистое, а материал находится под влиянием Caladan Brood, при том звуча более нетривиально, мрачно и злобно.[/more]

[more=Technical info]
Input File: 01 Empire.mp3
Channels : 2
Sample Rate : 48000
Precision : 16-bit
Duration : 00:09:30.10 = 27364752 samples ~ 42757.4 CDDA sectors
File Size : 23.1M
Bit Rate : 324k
Sample Encoding: MPEG audio (layer I, II or III)
Comments :
Title=Empire
Artist=Зимний Дракон
Album=Gnashing of the Dead Legend's Voice
Tracknumber=1
Year=2015
Genre=Epic Black Metal

[/more]

Register
(20) 0x13, 1968_janeart, blacky66, Darkthronefoad, Jurmagund, lafuma, legion01, metala, Moonshtook, oldvarg, Ostinato, rom666, Rosen, satanist666, serach, tont, VALERY, varlam4, vasiljev_sergej, wreak,

3 Pages V   1 2 3 >
- Lo-Fi Version Support form
Copyrights and abuse reports form
Time is now: 20th August 2019 - 05:57:11