Welcome Guest ( Log In | Register )

История благодарностей участнику Zimorodok ::: Спасибо сказали: 39 раз(а)
Дата поста: В теме: За сообщение: Спасибо сказали:
Oct 1 2017, 05:40:49 Baron SAMEDI & ИЗУВЕР - Уа Нхабиш!/Rehearsal Demo 97 [split] (2017)


*Artist: Baron SAMEDI & ИЗУВЕР
*Album: Уа Нхабиш!/Rehearsal Demo 97 [split]
*Year: 2017
*Genre: Gorenoise/Cybergrind | Noisecore/Noisegrind
*Country: Russian Federation | Russian Federation
*Format: mp3@CBR320kbps
*Size: 57MB

Tracklist:
1. Уа Нхабиш ! 01:50
2. Аэ Лоу Шугхэмо 01:58
3. Гошвайл Тхог 01:25
4. Доимрод 01:22
5. Оскви Ман 01:09
6. Гроиг 01:09
7. Акхароинг Шунмо 01:16
8. Окходат Ту нмо (Bonus track) 02:00
9. ИЗУВЕР - ИЗУВЕР - rehearsal demo "97" 16:54
******************************
Total playing time: 29:07



[more=Technical info]
Input File: 01. Baron SAMEDI - Уа Нхабиш !.mp3
Channels : 2
Sample Rate : 44100
Precision : 16-bit
Duration : 00:01:50.16 = 4858100 samples = 8262.07 CDDA sectors
File Size : 4.41M
Bit Rate : 320k
Sample Encoding: MPEG audio (layer I, II or III)
Comments :
Title=Óà Õàáèø !
Artist=Baron SAMEDI
Album=new
Year=2014
Genre=90

[/more]

Register
(2) morbidangelo, varlam4,
Mar 30 2016, 06:19:10 Baron Samedi - Ralph Werner - Projekt Golem [demo] (2015)


*Artist: Baron Samedi
*Album: Ralph Werner - Projekt Golem [demo]
*Year: 2015
*Genre: Industrial/Noisegrind/Black Metal
*Country: Russian Federation
*Format: mp3@CBR320kbps
*Size: 45MB

Tracklist:
01. Голоса Нгнарёка (O.N.A.) 04:01
02. 1981 (Протоколы Советских Мудрецов) 02:35
03. 1987 (Красная Каббала) 02:56
04. Крылья Холопа 02:51
05. Хабад - Дорога В... 02:55
06. CyberSocialZomвieNation 01:53
07. Каммала 03:45
08. Голый Завтрак Баяна Ширянова 03:44
******************************
Total playing time: 24:40



[more=Extended info][/more]

[more=Technical info]
Input File: 02. 1981 «Протоколы советских мудрецов»..mp3
Channels : 2
Sample Rate : 44100
Precision : 16-bit
Duration : 00:02:35.12 = 6840660 samples = 11633.8 CDDA sectors
File Size : 6.20M
Bit Rate : 320k
Sample Encoding: MPEG audio (layer I, II or III)
Comments :
Title=1981 «Ïðîòîêîëû ñîâåòñêèõ ìóäð
Artist=Baron SAMEDI
Album=Ralph Werner - Projekt Golem
Year=2011
Genre=90

[/more]

Register
(9) artscald, mimoladoff, morbidangelo, Rosen, Sanc, sweetd, varlam4, wreak, Герб,
Mar 29 2013, 08:19:10 Wold - Screech Owl (2007) (2) marilin, varlam4,
Mar 14 2013, 15:16:51 Амулет - Белое Сердце (1998)


*Artist: Амулет
*Album: Белое Сердце
*Year: 1998
*Genre: Dark Folk Gotik
*Country: Russian Federation
*Format: mp3@CBR320kbps
*Size: 72MB

Tracklist:
01 - Intro
02 - Тишина
03 - Заклинание
04 - Два костра
05 - Из чужой страны, из лихих времен
06 - Нежить тайных слов
07 - Песня плящущих человечков
08 - Крылатые стражи
09 - Белое сердце
10 - Песня летящих над лесом
11 - бонус Амулет (Лайв в Фаэтоне)
******************************
Total playing time: 57:49

Preview 1

[more=Extended info]http://www.kuzbass.ru/~amulet/index.html

"Новокузнецкая группа Амулет была официально образована в 1998 году.
В состав группы входили: Прохор Фриенко (вокал, гитара, тексты, музыка),
Стуров Алексей (перкуссия), Дмитриев Василий (бас), Доронченко Андрей (флейта), Котовский Макар (скрипка),
Ведмецкий Александр (клавиши), Бурмагин Александр (мастеринг).
Стиль группы довольно сложно охарактеризовать, даже сами участники группы не решились этого сделать.

Но к сожалению, в 2002 году группа перестала существовать из-за возникших трудностей с помещением и невозможностью музыкантами продолжать работу.
В апреле 2005 года ушел из жизни солист группы Прохор Фриенко.
На счету группы 2 альбома: Белое сердце и Детки малые." (с)
----------------------------
СОСТАВ ГРУППЫ:
Прохор Фриенко (вокал, гитара, тексты, музыка)
Стуров Алексей (перкуссия)
Дмитриев Василий (бас)
Доронченко Андрей (флейта)
Котовский Макар (скрипка)
Ведмецкий Александр (клавиши)
Бурмагин Александр (мастеринг)
ИСТОРИЯ ГРУППЫ:
Новокузнецкая группа "Амулет" была официально образована весной 1999 года. С тех пор ее состав немного изменился и корректировался. На сегодняшний день группу представляют: Прохор Фриенко (вокал, гитара, тексты, музыка), Стуров Алексей (перкуссия), Дмитриев Василий (бас), Доронченко Андрей (флейта), Котовский Макар (скрипка), Ведмецкий Александр (клавиши), Бурмагин Александр (мастеринг).
Группа, безусловно, молода, но, тем не менее, уже имеет достаточно профессиональный для нашего региона альбом (звукорежиссура, вокал, инструментальное исполнение, сценическая постановка - все это на высоте).
Стиль "Амулета" даже сами участники группы однозначно охарактеризовать не решились. Для меня их музыка, в первую очередь, - "музыка души", а их песни - "голос сердца". Это ни в коем случае не одно музыкальное направление и, уж тем более, не смешение стилей. Это то, в чем каждый слушатель найдет частичку себя. Это особый волшебный мир, полный романтики, поэзии, неразгаданности...
Что касается творческих планов, то их участники группы пока строить не собираются. Тем не менее в настоящее время идет кропотливая работа над вторым альбомом.
И в заключение мне хотелось бы добавить, что музыканты "Амулета" - люди увлеченные и горячо преданные своему делу. Они исполнены творческой энергии и не сломаются перед трудностями. Ведь у них есть то, что их объединяет, что дает им силы и уверенность в себе - их Любовь к Музыке


Input File: 01 Intro.mp3
Channels : 2
Sample Rate : 44100
Precision : 16-bit
Duration : 00:01:20.88 = 3566588 samples = 6065.63 CDDA sectors
File Size : 1.50M
Bit Rate : 148k
Sample Encoding: MPEG audio (layer I, II or III)
Comments :
Title=Intro
Artist=Àìóëåò
Album=Áåëîå Ñåðäöå
Tracknumber=1
Year=1998
Genre=Gothic

[/more]

Register
(1) Cartman223,
Jan 18 2013, 08:24:56 Rain - Starlight Exctinction (2002)


*Artist: Rain
*Album: Starlight Exctinction
*Year: 2002
*Genre: Dark Metal
*Country: Switzerland
*Format: mp3@CBR320kbps
*Size: 97MB

Tracklist:
01. The Four Messengers of Neptune
02. Annihilation of the Centuries
03. The Cyclic Flood
04. Aurora Borealis
05. Like Dying Fireflies
06. Narcotik 00
07. Starclouds & Cosmic Seas
08. Dance of Infinity
09. Dead Planets (instrumental)
10. Meteor Rain
11. Amethyst
12. The Final Extinction
******************************
Total playing time: 41:01



[more=Extended info]


Input File: 01 - The Four Messengers of Neptune.mp3
Channels : 2
Sample Rate : 44100
Precision : 16-bit
Duration : 00:02:55.20 = 7726320 samples = 13140 CDDA sectors
File Size : 7.01M
Bit Rate : 320k
Sample Encoding: MPEG audio (layer I, II or III)
Comments :
Title=The Four Messengers of Neptune
Artist=Rain
Album=Starlight Exctinction
Tracknumber=1
Year=2002
Genre=Industrial Dark Metal

[/more]
Register
(16) -=Lion=-, AHBAnep, Buregon, Darkthronefoad, gwynnbleid, marilin, metala, metaljan, Old Vyaine, senecazm, toly1917, Ugly13, VALERY, varlam4, vov7609, wreak,
Jan 27 2012, 07:20:20 Baron SAMEDI - Devar (1998)


*Artist: Baron SAMEDI
*Album: Devar
*Year: 1998
*Genre: Dark Metal
*Country: Russian Federation
*Format: mp3@CBR320kbps
*Size: 71MB

Tracklist:
1. Жнец 02:53
2. Дэвар 03:08
3. Сон 02:39
4. Моя ненависть 04:31
5. Ярость 04:24
6. Братские могилы 01:40
7. Путник 03:25
8. Каммала 03:44
9. Древний город 04:47
10. Пых-Пох Винни Трах 02:45
11. Devar 03:08
******************************
Total playing time: 37:04

http://www.jamendo.com/ru/album/95809?refuid=11790

Register
(4) artscald, metala, oldvarg, tont,
Nov 26 2011, 18:58:31 Baron SAMEDI - Way Graov (2011)


*Artist: Baron SAMEDI
*Album: Way Graov
*Year: 2011
*Genre: Industrial
*Country: Russian Federation
*Format: mp3@320kbps
*Size: 72MB

Tracklist:
1. Remembering Monster
2. Graov
3. Kammala
4. The Path To War
5. Bag Of Goodness
6. Antares
7. Remember The Spirit Of The Land
8. Monmaransy
9. Whispering In The Dark
10. The Fisherman And Dagon
11. DiktatorShit SaikoOratorium
******************************
Total playing time: 44:10

Preview 1

Register
(2) gwar, kefka,

- Lo-Fi Version Support form
Copyrights and abuse reports form
Time is now: 24th November 2020 - 07:18:16