Welcome Guest ( Log In | Register )

История благодарностей участнику Hellstriker ::: Спасибо сказали: 946 раз(а)
Дата поста: В теме: За сообщение: Спасибо сказали:
Feb 6 2019, 19:17:30 Witchskull - The Vast Electric Dark (2015)
Угарнул малёх с ютуба сегодня banana.gif
(1) SAPOGi,
Feb 6 2019, 19:05:10 Witchskull - Coven's Will (2018)
pray.gif [youtube]TlZjK5b58X8[/youtube]
(1) SAPOGi,
Jan 30 2019, 09:02:10 New Light Choir - Torchlight (2018)


*Artist: New Light Choir
*Album: Torchlight
*Year: 2018
*Genre: Heavy Metal
*Country: United States
*Format: mp3@CBR320kbps
*Size: 105MB

Tracklist:
01. Grand Architect
02. Queen of Winter
03. Firebird
04. Omens
05. Adamantine
06. Psalm 6
07. Golden Ring
08. Moondawn Mirage III
09. Last March
10. Stardust and Torchlight
******************************
Total playing time: 45:51



[more=Technical info]
Input File: 01. Grand Architect.mp3
Channels : 2
Sample Rate : 44100
Precision : 16-bit
Duration : 00:03:31.49 = 9326885 samples = 15862 CDDA sectors
File Size : 8.55M
Bit Rate : 323k
Sample Encoding: MPEG audio (layer I, II or III)
Comments :
Title=Grand Architect
Artist=New Light Choir
Album=Torchlight
Year=2018

[/more]

Register
(16) AHBAnep, artscald, aviacademy, csgmnk, Darkness, DezmondZ, hammer, Mogozoz, Olethros, postal67, Rosen, Rover, SAPOGi, senecazm, varlam4, vir2al,
Dec 9 2016, 14:46:07 Работа Рубить - Регресс (2015)
⚒Добротное рубилово!⚒
(3) DarkHorde, Diflock, Izbadaden,
Oct 18 2016, 09:00:04 Darkthrone - Arctic Thunder (2016)
"Take these broken wings and learn to fly again..." banana.gif
(1) Ariox,
Mar 17 2014, 10:42:12 The Oath - The Oath (2014)
pray.gif
на затравочку
[youtube]jt6xCf9Iivk[/youtube]

ох уж, эта весна... banana.gif
(5) Jarnroth, Nemez, Old Vyaine, vosmidesijatye, Дерсу Узала,
Jan 21 2014, 19:47:58 Black Magic - Raise The Dead [demo] (2007)
параметры те же
Register
(8) cancer1974, craP_cillA, Genuine Thrashiac, marilin, MEmethuselah, MikaelBox, potap03020100, sumostig,
Jan 1 2014, 12:10:36 Lucifer Rising - Тортури Баторі (2014)
1 января. уже почти за плечами празднование нового года, хотя, кажется, этот марафон на выживание никогда не закончится. и тут, из тумана всплывает полноформатник Lucifer Rising, и органично так вплетается в окружающую сюрреальность. отторжения не вызывает, но и особо бурных эмоций тоже, хотя откуда им взяться в этой опустошённой пресытившейся оболочке? 3/5
(2) mindeater, Дерсу Узала,
Dec 13 2013, 22:45:23 Lucifer Rising - Маленький володар [single] (2013)
зашибенно! pray.gif
(1) mindeater,
Nov 11 2013, 16:46:55 Inferno - Downtown Hades (1997)
вуаля! 320 kbps 68.21 mb
Register
(5) andreikun, avkruchinin, DarkHorde, hammer, vosmidesijatye,
Nov 9 2013, 08:53:53 Энциклопедия-фонд современного олдскульного трэша // Encyclopaedia of modern old school thrash metal
ЦИТАТА(DarkHorde @ 9th November 2013 - 04:42:03) *
Есть повторы в списке Hellstriker, надо повнимательнее быть.

В упор не вижу, но да ладно.
(1) DarkHorde,
Nov 8 2013, 15:48:01 Энциклопедия-фонд современного олдскульного трэша // Encyclopaedia of modern old school thrash metal (2) DarkHorde, vosmidesijatye,
Oct 30 2013, 09:37:26 Deathroner - Death To All (2010)
FLAC 275.14 Mb
Register
(1) hammer,
Sep 13 2013, 14:29:36 Blood Spill - Demonic Plague [re-release 2009] (1988)
ЦИТАТА(gorebach @ 22nd March 2011 - 17:59:22) *
Лабают не хуже Necrovore. Структура и постановка, а главное - исполнение композиций, как для того года дико поражают. Короче, злоба и мрак в лучшем виде


ЦИТАТА
BAND OF THE WEEK: BLOOD SPILL (USA)

not since the very first BOTW band In Solitude started the whole thing!) have I been more sure about a band. "unfortunately" this is an old and forgotten band, a VINTAGE botw.
in 1988 when this demo presumably came out, i was completely a part of the global underground scene, yet this band was nowhere to be found. i never even heard about them until Dylan Hughes played them on one of his godly MANIAC MONDAY radio shows (check it out online and download). They weren't mentioned in any of the zines (and i still read those 80s zines) and they were not to be found in any tape traders lists. BLOOD SPILL is the best demo i've heard since POISON (germany) into the abyss demo, it still feels like i've been struck by lightning. the sound is PERFECT demo sound, PERFECT for the style they are playing (for fans of necrovore and 1st possessed album, but there is much more to it and different than that, riffwise and structurewise) and it has one of the best vocalists i have EVER heard. this whole thing is so strange, it feels like it could almost be a new band disguising their effort as old demo from texas 88, because if this had gotten spread to the right people back then it would surely have been as legendary as Necrovore are these days. all hail

- f e n r i z
(1) gorebach,
Sep 3 2013, 07:37:09 Infant Death - War (2013)


*Artist: Infant Death
*Album: War
*Year: 2013
*Genre: Black/Thrash Metal
*Country: Norway
*Format: mp3@CBR320kbps
*Size: 65MB

Tracklist:
1. An Introduction to War
2. Stoned to Death
3. Powerful and Prosperous
4. Breaker of Oaths
5. Fantasy Fulfillment
6. Back From the Drowned
7. Unholy Desire
8. Wrapped in Fire
9. Steel Merchant
10. Bestial Slaughter
11. Urge for Evil
12. Punishment by Rape
******************************
Total playing time: 28:28

[more=Extended info]Total fuckin' archaic METAL!!!
[youtube]t713YUW4D2Y[/youtube][/more]

[more=Technical info]
Input File: 02. Stoned to Death.mp3
Channels : 2
Sample Rate : 44100
Precision : 16-bit
Duration : 00:02:13.05 = 5867681 samples = 9979.05 CDDA sectors
File Size : 5.33M
Bit Rate : 320k
Sample Encoding: MPEG audio (layer I, II or III)
Comments :
Title=Stoned to Death
Album=War
Tracknumber=2
Year=2013

[/more]

Register
(42) 0x13, aesteticvice, AHBAnep, aorta2, Asketto, avkruchinin, Boozer, Buregon, cancer1974, caro, Constantinus I, craP_cillA, ddarkthrone, drbutcher, fishish, fuoco, Genuine Thrashiac, Hell_Is_Here, Koscheyushka, Mahmud_1, metala, neoatheist, obituarydark, oldvarg, Pentium.Disel, princeshr, Reverend, rom666, RUSP73, Samaritianin, Samogon, Scuns, skeletron215, Spunkynut, thrashes, Tino, VALERY, varlam4, vov7609, wgs73, wreak, ZambuL,
May 9 2013, 17:27:34 Jex Thoth
Песня с грядущего альбома
[youtube]SYB2yrOPG8c#![/youtube]
19.gif
(5) Lucius Eternal, Mahmud_1, Premature_Devotion, satanath, TNARAG,
Apr 20 2013, 08:07:25 Hinsides - Hinsides [demo] (2008)
Перезалил, параметры те же:
Register
(1) BRUTAL06,
Mar 21 2013, 11:56:56 Stagnation - Stagnation [ep] (2008)
Перезалил (параметры те же)
Register
(1) smes,
Mar 5 2013, 14:22:43 Weed Priest - Weed Priest (2013)
pray.gif [youtube]Qx-UhDGvJpo#![/youtube]
(1) KVRT,
Mar 5 2013, 07:34:43 Weed Priest - Weed Priest (2013)


*Artist: Weed Priest
*Album: Weed Priest
*Year: 2013
*Genre: Stoner/Doom Metal
*Country: Ireland
*Format: mp3@CBR320kbps
*Size: 140MB

Tracklist:
1. Final Spell 12:57
2. Erichtho 06:53
3. Walpurgia 08:16
4. Thy Kingdom Gone 07:39
5. Weed Priest 11:14
6. Day of Reckoning 13:52
******************************
Total playing time: 1:00:51

[more=Extended info]


Input File: 02 Erichtho.mp3
Channels : 2
Sample Rate : 44100
Precision : 16-bit
Duration : 00:06:54.03 = 18258591 samples = 31052 CDDA sectors
File Size : 16.7M
Bit Rate : 322k
Sample Encoding: MPEG audio (layer I, II or III)
Comments :
Title=Erichtho
Artist=Weed Priest
Album=Weed Priest
Tracknumber=2
Year=2013

[/more]

Register
(26) 666BlackDeath, aesteticvice, avkruchinin, bka, Boozer, Buregon, Cruor, Daale, Emhyr var Emreis, Fryz, Galactus, HMHamster, Hroedmar, jpvalentim, Koscheyushka, KVRT, MeathookSeed, MEmethuselah, petrophp, RUDACHUR, Shub, StabWound, VALERY, varlam4, wreak, Дерсу Узала,
Dec 23 2012, 10:42:58 Обсуждаем скоростной Thrash Metal
Armoros тоже хороши
http://www.youtube.com/watch?v=saVTo_nKDEQ
и Post Mortem pray.gif
А из достойных современников, советую обратить внимание на:
Nekromantheon
Antichrist
Deathroner
Nocturnal
Entrench
Farscape
(1) Anhra Mainyu,
Dec 23 2012, 10:31:19 Обсуждаем скоростной Thrash Metal
Onslaught ещё здесь не поминали.
(1) slack,
Nov 22 2012, 20:15:12 Okkultokrati - Snakereigns (2012)
paganheart,
9.gif да, прокачало!
(1) paganheart,
Aug 4 2012, 10:48:38 Disräpe - Dis Nightmare Continues [ep] (2011)
abob, этих канадцев зацени: After The Bombs - Relentless Onslaught (2007)
(2) abob, metal73,
Aug 3 2012, 10:29:33 Satan's Satyrs - Wild Beyond Belief! (2012)


*Artist: Satan's Satyrs
*Album: Wild Beyond Belief!
*Year: 2012
*Genre: Heavy/Doom Metal/Punk
*Country: United States
*Format: mp3@CBR320kbps
*Size: 87MB

Tracklist:
1. Sadist 69
2. Electric Witchwhipper
3. Carnival of Souls
4. Servitors and Myrmidons
5. Strange Robes
6. Alucard
7. Bellydancer's Delight
8. Satan's Satyrs
******************************
Total playing time: 39:35

[more=Extended info]


Input File: A1.Sadist 69.mp3
Channels : 2
Sample Rate : 44100
Precision : 16-bit
Duration : 00:05:37.03 = 14863199 samples = 25277.5 CDDA sectors
File Size : 13.5M
Bit Rate : 320k
Sample Encoding: MPEG audio (layer I, II or III)
Comments :
Title=Sadist 69
Artist=Satan's Satyrs
Album=Wild Beyond Belief!
Tracknumber=1
Year=2012
Genre=Metal

[/more]

Register
(5) artscald, jpvalentim, varlam4, vziel, Zomboth,

6 Pages V   1 2 3 > » 
- Lo-Fi Version Support form
Copyrights and abuse reports form
Time is now: 10th December 2019 - 05:40:46