Welcome Guest ( Log In | Register )

История благодарностей участнику Sonnekonige ::: Спасибо сказали: 414 раз(а)
Дата поста: В теме: За сообщение: Спасибо сказали:
May 24 2014, 18:59:25 Marduk - Serpent Sermon (2012)
Было бы странно не увидеть именно этого: "Панцер Дивижн - последний хороший альбом!!!1111"
Мортуус в одном из интервью объяснял, что для любителей войны - Айрон Дон, а для оккультистов - Серпент Сермон. Да и не в этом дело.
Альбом хороший, качественный. Есть и медленные "задушевные" композиции, и боевики, типа "Hail Mary". А барабанная партия в "M.A.M.M.O.N." вообще напомнила Мейхем розлива 94 года. Однозначно хороший релиз.
(1) vosmidesijatye,
May 20 2014, 11:53:21 The Meads Of Asphodel - Exhuming The Grave Of Yeshua (2003)
Register
(5) artscald, jorgeguldur, kimkayoung, Narasimha, wolverine,
May 20 2014, 11:48:17 The Meads Of Asphodel - The Excommunication Of Christ (2001)
Ссылки все снова умерли, 320+сканы:
Register
(1) artscald,
May 18 2014, 16:36:32 A Forest Of Stars - A Shadowplay For Yesterdays (2012)
Register


Все тут умерло. 320.
(1) Misanthrofeel,
May 9 2014, 08:05:04 Возвращение Cynic
ЦИТАТА(clublen @ May 9 2014, 07:43:09) *
И ещё, зачем им постоянно надо обсуждать это публично, и тем более в контексте их музыки? Стало быть это музыка гейская... мда, не думал что, оказывается, при её написании авторы представляли взаимное проникновение в шоколадные глазки друг друга. Я не противник пидapoв, я просто пытаюсь понять как что и почему. Ведь рождаются все нормальными людьми, вроде, а потом, на каком-то этапе происходит сбой.


Вот-вот, это все понятно, что личное дело каждого, Господь создал такими, какие они есть, и прочая лабуда.
Но вот эта вот мода раскрытия карт до добра не доведет. Причем это сопровождается всегда словами "гомофобия", "люди должны понять" и ля-ля-ля.
(1) mondblut,
May 8 2014, 18:00:36 Wölvefröst - Barbarian Hellstorm [demo] (2013)


*Artist: Wölvefröst
*Album: Barbarian Hellstorm [demo]
*Year: 2013
*Genre: Blackened Crust
*Country: United States
*Format: mp3@VBR250kbps
*Size: 38MB

Tracklist:
1. Drums Of War
2. Iron Fist Of The Orc
3. Barbarian Hellstorm
4. Gravelord
5. Burning A Troll
6. Amongst The Mist
******************************
Total playing time: 18:47

[more=Extended info]
[/more]

Register
(10) bka, Borderline1991, caro, Moonshtook, morbidangelo, Tulen_FM, VALERY, wgs73, wreak, Герб,
May 7 2014, 06:14:29 Satan's Satyrs - Die Screaming (2014)
Первый альбом мне понравился, интересно, что на этот раз получилось.
(1) vosmidesijatye,
May 4 2014, 20:45:36 Iron Monkey - Iron Monkey (1997)
Register


Странно, что не было в кач-ве 320. Собсно, оно.
(2) marilin, thornfields,
Apr 20 2014, 17:27:59 Slayer 2014
Слеер без Ломбардо и Ханнемана - не Слеер.
(2) Steinnorik, Thrashman,
Apr 17 2014, 17:28:15 Dying Fetus - Stop At Nothing (2003)
ЦИТАТА(S6T6N @ Apr 17 2014, 17:09:53) *
depositfiles' link is dead, why don't you reup it at a russian host? those bad boys are the best there is smile4.gif


Register
(1) S6T6N,
Mar 27 2014, 14:14:28 Various Artists - The CVLT Nation Sessions: Black Sabbath Master Of Reality [best of/compilation] (2014)


*Artist: Various Artists
*Album: The CVLT Nation Sessions: Black Sabbath Master Of Reality [best of/compilation]
*Year: 2014
*Genre: Sludge/Doom Metal
*Country: Unknown
*Format: mp3@CBR320kbps
*Size: 153MB

Tracklist:
1. Sweet Leaf – Primitive Man 6:26
2. After Forever – Rorcal 7:38
3. Children Of the Grave – Cult of Occult 12:58
4. The Haunting – Bongripper (Hel and Taz from Undersmile on Vocals) 3:35
5. Orchid/Lord Of This World – Graves At Sea 13:15
6. Solitude – Albino Python 6:02
7. Into The Void – Usnea 8:13
******************************
Total playing time: 58:07

[more=Technical info]
Input File: 04 The Haunting.mp3
Channels : 2
Sample Rate : 44100
Precision : 16-bit
Duration : 00:03:34.67 = 9467079 samples = 16100.5 CDDA sectors
File Size : 11.8M
Bit Rate : 441k
Sample Encoding: MPEG audio (layer I, II or III)
Comments :
Title=The Haunting
Artist=Bongripper
Album=Black Sabbath - Masters Of Reality (The Cvlt Nation Sessions)
Tracknumber=4/7
Year=2014
Genre=Sludge Doom Metal

[/more]

Register
(13) AndreFrancis, caro, cist, Cruor, killingod, marilin, Ostinato, popen13, sorgnatt, StabWound, VALERY, wreak, Герб,
Feb 7 2013, 10:54:26 Amebix - Arise! (1985)
Register


320
(2) current, varlam4,
Jan 11 2013, 23:20:47 Godflesh - Slavestate (1991)
Register

320
(1) Disfigurator,
Dec 24 2012, 20:18:03 Various Artists - Blackened: The Persian Tribute Album To Metallica [best of/compilation] (2012)


*Artist: Various Artists
*Album: Blackened: The Persian Tribute Album To Metallica [best of/compilation]
*Year: 2012
*Genre: Thrash Metal
*Country: Iran
*Format: mp3@CBR320kbps
*Size: 228MB

Tracklist:
01. Ehsan Imani - Hit The Lights 3:47
02. Acrovaya - Fade To Black 6:44
03. Mordab - To Live Is To Die 10:20
04. Abdolreza Ohadi - My Friend Of Misery 6:52
05. Sabke Morde - Battery 8:22
06. Part - Master Of Puppets 8:26
07. Hellbent & Hooman Ajdari - Bleeding Me 8:58
08. Stalk - Enter Sandman 4:52
09. Credenc - One 7:12
10. Hallucinous Fate - The Thing That Should Not Be 5:25
11. Dotem - The Unnamed Feeling 7:17
12. Sidewalk Bemol - King Nothing 5:36
13. Soheil Mokhberi - For Whom The Bell Tolls 3:40
14. Mantism - Through The Never 3:51
15. The Requiem Mass - To Live Is To Die 10:28
16. Manistar - Seek And Destroy 6:35
******************************
Total playing time: 1:48:25

[more=Extended info]


Input File: 01 Hit The Lights.mp3
Channels : 2
Sample Rate : 44100
Precision : 16-bit
Duration : 00:03:47.06 = 10013302 samples = 17029.4 CDDA sectors
File Size : 9.28M
Bit Rate : 327k
Sample Encoding: MPEG audio (layer I, II or III)
Comments :
Title=Hit The Lights
Artist=Ehsan Imani
Album=Blackened: The Persian Tribute Album To Metallica
Tracknumber=01
Year=2012
Genre=Metal

[/more]

Register
(9) garretje, Hell_Is_Here, Marina543, NachtWulf, Old Vyaine, princeshr, stone88, varlam4, wreak,
Dec 21 2012, 17:28:32 Church Of Misery - Master Of Brutality (2001)
Register


320
(2) kolar666, triton,
Dec 15 2012, 12:59:40 Neurosis - Times Of Grace (1999)
Register

320
(1) marilin,
Dec 15 2012, 12:23:33 Neurosis - Pain Of Mind (1988)
Register


320
(8) Evgundel, Genuine Thrashiac, marilin, MeathookSeed, princeshr, Proteus_666, varlam4, Vertigo,
Nov 6 2012, 20:56:15 U.S Christmas - Run Thick In The Night (2010)
Register


320
(1) artscald,
Nov 6 2012, 20:41:56 YOB - The Great Cessation (2009)
Register


320
(3) molly666, triton, Uriel,
Nov 6 2012, 20:38:27 YOB - The Unreal Never Lived (2005)
Register


320
(2) Black Cat, VALERY,
Nov 6 2012, 20:29:46 YOB - The Illusion Of Motion (2004)
Register


320
Nov 6 2012, 20:25:41 YOB - Catharsis (2003)
Register


320
(2) gena, triton,
Nov 6 2012, 20:24:04 YOB - Elaborations Of Carbon (2002)
Register


320
(2) Black Cat, fishish,
Feb 25 2012, 15:09:35 Terrorizer - Hordes Of Zombies (2012)
ЦИТАТА(Svetoch @ Feb 25 2012, 15:04:00) *
Последний морбид энджел на голову сильнее этого альбома, так что странно он её подлатать решил)


Последний Morbid Angel - 11 треков полнейшего разочарования.
(2) DarkHorde, HA7tur,
Jan 26 2012, 20:29:54 Kammerflimmer Kollektief - Hysteria (2001)
О, на сон грядущий, великолепно, благодарю, Vertigo!
(1) Vertigo,

4 Pages V   1 2 3 > » 
- Lo-Fi Version Support form
Copyrights and abuse reports form
Time is now: 16th July 2020 - 17:07:57