Welcome Guest ( Log In | Register )

История благодарностей участнику princeshr ::: Спасибо сказали: 2226 раз(а)
Дата поста: В теме: За сообщение: Спасибо сказали:
Aug 19 2019, 03:48:55 Welter In Thy Blood - The Transference Of Misery (2009)
QUOTE(LazarShadow @ Aug 8 2019, 19:12:35) *
Would someone reupload this in 320 kbps.

Unfortunately a 3TB external hard of mine (containing this album along with thousands more) is dead. I had another version somewhere else with the 3rd song being VBR. I’ve uploaded it here if you want:
Register
(1) LazarShadow,
Apr 27 2018, 13:46:06 Varathron - Patriarchs Of Evil (2018)
A glorious return to form for the gods of Greek BM. The best album of mighty Varathron in the new millennium. Complex and at the same time catchy and memorable with great guitar and drums work.
(3) Alexis The Best, infiltrator, sta1081,
Mar 19 2018, 22:11:49 Von - Ritual Of The Black Mass [single] (2013)
QUOTE(Lanceatum @ Jan 2 2018, 07:03:54) *
Reupload please

New working [MediaFire] link added by me.
Specifics are the same as before.
(2) Lanceatum, thenecromancer,
Feb 16 2018, 15:35:26 Atomine Elektrine - Elemental Severance (1995)


*Artist: Atomine Elektrine
*Album: Elemental Severance
*Year: 1995
*Genre: Ambient/Electronic
*Country: Sweden
*Format: mp3@CBR320kbps
*Size: 119MB

Tracklist:
01. Severance 04:38
02. Film 01:55
03. Interlude I 02:27
04. Entrance Mirage 09:39
05. Interlude II 01:24
06. Oswiecim 04:54
07. Reliance 04:19
08. Voices Of Trinity 01:31
09. Kalfatra 05:52
10. Fragments Of The Past 03:58
11. Interlude III 02:07
12. Atom 04:38
13. Hyperion 03:50
******************************
Total playing time: 51:12

[more=Extended info]Another great project of Peter Andersson (Raison D'etre, Stratvm Terror, etc.)
And another great release by Roger Karmanik's legendary Cold Meat Industry label[/more]

[more=Technical info]
Input File: 02. Film.mp3
Channels : 2
Sample Rate : 44100
Precision : 16-bit
Duration : 00:01:55.79 = 5106251 samples = 8684.1 CDDA sectors
File Size : 4.64M
Bit Rate : 320k
Sample Encoding: MPEG audio (layer I, II or III)
Comments :
Title=Film
Artist=Atomine Elektrine
Album=Elemental Severance
Tracknumber=02/13
Year=1995
Genre=Ambient/Electronic

[/more]

Register
(8) Angry_Chair, Hell_Is_Here, Hipgnosis, infiltrator, mirotvorets, RUSP73, Un4given, veselchak_u,
Feb 15 2018, 02:44:58 Ghost - Ceremony And Devotion [live] (2017)


*Artist: Ghost
*Album: Ceremony And Devotion [live]
*Year: 2017
*Genre: Heavy Metal/Occult Rock
*Country: Sweden
*Format: mp3@CBR320kbps
*Size: 170MB

Tracklist:
01. Square Hammer 04:23
02. From The Pinnacle To The Pit 04:16
03. Con Clavi Con Dio 03:53
04. Per Aspera Ad Inferi 05:00
05. Body And Blood 03:53
06. Devil Church 02:17
07. Cirice 05:59
08. Ghuleh / Zombie Queen 07:39
09. Year Zero 05:42
10. Spöksonat 00:52
11. He Is 04:44
12. Mummy Dust 04:19
13. Absolution 05:22
14. Ritual 07:41
15. Monstrance Clock 06:12
******************************
Total playing time: 1:12:12

[more=Extended info]https://www.metal-archives.com/albums/Ghost...Devotion/685714
Release date: December 8th, 2017
Label: Universal

Recorded live in USA in 2017.
Lineup:
Papa Emeritus III Vocals
Nameless Ghoul Bass
Nameless Ghoul Drums
Nameless Ghoul Guitars (lead)
Nameless Ghoul Guitars (rhythm)
Nameless Ghoul Keyboards[/more]

[more=Technical info]
Input File: 01. Square Hammer.mp3
Channels : 2
Sample Rate : 44100
Precision : 16-bit
Duration : 00:04:23.76 = 11631816 samples = 19782 CDDA sectors
File Size : 10.6M
Bit Rate : 320k
Sample Encoding: MPEG audio (layer I, II or III)
Comments :
Title=Square Hammer
Artist=Ghost
Album=Ceremony and Devotion [live]
Tracknumber=01/15
Year=2017
Genre=Heavy Metal/ Occult Rock

[/more]

Register
(15) AHBAnep, Angry_Chair, Aresson, fabriziomagno, Forest, marilin, Mogozoz, Narasimha, recber, Reverend, Rosen, soulskinner681, VALERY, varlam4, wreak,
Jan 18 2018, 00:55:23 Satura - Rotten Creation [ep] (2017)


*Artist: Satura
*Album: Rotten Creation [ep]
*Year: 2017
*Genre: Modern Melodic Death Metal/Metalcore
*Country: Iran
*Format: mp3@CBR128kbps
*Size: 31MB

Tracklist:
01. Rotten Creation [Intro] 02:01
02. Stand Alone 04:15
03. Earth Cancer 03:24
04. Sea Of Blood 04:21
05. Rebellious Slave 05:14
06. Earth Cancer [Electronic Remix] 03:49
******************************
Total playing time: 23:04

[more=Extended info]+ HQ Scans
"Satura" was Formed in Tehran-Iran in 2008 by
Ashkan Safapour (Guitarist, composer & producer)[/more]

[more=Technical info]
Input File: 02. Stand Alone.mp3
Channels : 2
Sample Rate : 44100
Precision : 16-bit
Duration : 00:04:15.44 = 11265036 samples = 19158.2 CDDA sectors
File Size : 4.09M
Bit Rate : 128k
Sample Encoding: MPEG audio (layer I, II or III)
Comments :
Title=Stand Alone
Artist=Satura
Album=Rotten Creation [EP]
Tracknumber=02/06
Year=2017
Genre=Melodic Death Metal / Melodic Metalcore

[/more]

Register
(2) NachtWulf, Rosen,
Jan 3 2018, 20:09:19 Mortiis - Demons Are Back [studio clip] (2016)


*Performer: Mortiis
*Title: Demons Are Back
*Type: Studio Clip
*Album: The Great Deceiver
*Year: 2016
*Genre: Industrial Metal/Rock
*Country: Norway

*Audio: AAC@160kbps
*Video: h.264@2135kbps
*Resolution: 1280x720
*Size: 75MB
******************************
*Length: 00:04:56

Register
(2) gwar, Rosen,
Jan 2 2018, 23:25:10 Mortiis - Throe [ep] (2016)


*Artist: Mortiis
*Album: Throe [ep]
*Year: 2016
*Genre: Dark Ambient/Experimental
*Country: Norway
*Format: mp3@CBR320kbps
*Size: 24MB

Tracklist:
01. Atone 01:08
02. Psychosphere 01:07
03. Scab 00:34
04. Worship 01:40
05. Scathe 01:26
06. Phantom 01:29
07. Throe 01:22
08. The Ringeling 01:25
******************************
Total playing time: 10:11

[more=Extended info]Exclusive EP given out to fans who ordered The Great Deceiver-sets.
https://www.discogs.com/Mortiis-Throe/release/8600941

Experimental Dark Ambient and somehow Industrial sketches, personally reminding me of some of David Lynch's masterpieces soundtracks composed by Angelo Badalamenti - especially the "Twin Peaks" series.[/more]

[more=Technical info]
Input File: 07. Throe.mp3
Channels : 2
Sample Rate : 48000
Precision : 16-bit
Duration : 00:01:22.44 = 3957264 samples ~ 6183.22 CDDA sectors
File Size : 3.37M
Bit Rate : 327k
Sample Encoding: MPEG audio (layer I, II or III)
Comments :
Title=Throe
Artist=Mortiis ‎
Album=Throe [EP]
Tracknumber=07/08
Year=2016
Genre=Dark Ambient, Industrial, Experimental

[/more]

Register
(12) 99ea, cancer1974, gwar, Hell_Is_Here, Henmik, Infidel, Jurmagund, Mirddin, Sjelekval, thenecromancer, wtk.412, Абигор,
Dec 20 2017, 01:39:52 Orphaned Land - Orphaned Land & Friends 25th Anniversary [boxed set] (2017)


*Artist: Orphaned Land
*Album: Orphaned Land & Friends 25th Anniversary [boxed set]
*Year: 2017
*Genre: Middle Eastern Folk/Progressive Metal
*Country: Israel
*Format: mp3@CBR320kbps
*Size: 96MB

Tracklist:
01. The Beloved's Cry (Live Tel Aviv 2011, Ft. Steven Wilson) 03:32
02. M I ? (Live Tel Aviv 2011, Ft. Steven Wilson) 03:35
03. Halon Layam Hatihon (Ft.Yehuda Poliker) 06:25
04. As I Stare At The Ocean Alone (Ft.Yehuda Poliker) 06:15
05. Estarabim (Alternative Mix, Ft. Erkin Koray) 05:10
06. Estarabim (Radio Version, Ft. Erkin Koray) 04:41
07. From Broken Vessels (Live Tel Aviv 2011, Ft. Moran Magal & Friends) 07:45
08. Jeremy (Ft. Moran Magal & Friends) 04:03
******************************
Total playing time: 41:26

[more=Extended info]ORPHANED LAND’s 25TH ANNIVERSARY COMPILATION
https://www.metal-archives.com/albums/Orpha...iversary/651160
Type: Boxed Set
Release Date: April 22nd, 2017
Limitation: 500 copies

To celebrate their 25th anniversary, oriental metal pioneers ORPHANED LAND have released a digital compilation of special versions of some of their most popular songs and previously unreleased material titled "Orphaned Land & Friends"!
Frontman Kobi Farhi comments: "We are very proud to release these amazing collaborations we did with amazing different and various musical heroes of ours such as Steven Wilson, Erkin Oray or Yehuda Poliker. Not to mention that cover we did with friends for Pearl Jam or that amazing Piano cover Moran Magal did to our ORwarriOR song "From Broken Vessels". These tracks were released only as bonus tracks on our previous albums' limited editions and some songs were never released officially. Many people were not aware of these amazing versions and we believe that Orphaned Land & Friends' is something you should all know!"

Tracks 1, 2, 7: Live Tel Aviv 2011
Tracks 1-2: Featuring Steven Wilson
Tracks 3-4: Featuring Yehuda Poliker
Tracks 5-6: Featuring Erkin Koray
Tracks 7-8: Featuring Morgan Magal & Friends[/more]

[more=Technical info]
Input File: 01. The Beloved's Cry (Live Tel Aviv 2011).mp3
Channels : 2
Sample Rate : 44100
Precision : 16-bit
Duration : 00:03:32.55 = 9373631 samples = 15941.5 CDDA sectors
File Size : 8.59M
Bit Rate : 323k
Sample Encoding: MPEG audio (layer I, II or III)
Comments :
Title=The Beloved's Cry (Live Tel Aviv 2011)
Artist=Orphaned Land
Album=Orphaned Land & Friends
Tracknumber=01/08
Year=2017
Genre=Middle Eastern Folk/Progressive Metal

[/more]

Register
(25) -=Lion=-, 99ea, AHBAnep, Aresson, carla667, Cartman223, csgmnk, dimitriusk, Emhyr var Emreis, fabriziomagno, Hell_Is_Here, infozahist, kimkayoung, loicv70, Metalass, Mplast, Old Vyaine, postal67, Ratibor366, recber, Relicario, Rosen, varlam4, wtk.412, Абигор,
Nov 21 2017, 20:29:08 Wrust - Soulless Machine (2007)


*Artist: Wrust
*Album: Soulless Machine
*Year: 2007
*Genre: Death Metal
*Country: Botswana
*Format: mp3@CBR128kbps
*Size: 29MB

Tracklist:
01. Soulless Machine 03:33
02. Kill Or Be Killed 05:11
03. Just A Sinner 03:41
04. Prophecy Of Doom 02:52
05. Run 03:46
06. The Renegade 04:15
07. Why Me 05:51
08. Cleansing Ritual 02:32
******************************
Total playing time: 31:41

[more=Extended info]WRUST is a talented band from Botswana (Gaborone) formed in 2000. This is their Debut full length Album. Their second album may be found here:
http://metalarea.org/forum/index.php?showtopic=298181&hl=wrust%20

https://www.metal-archives.com/bands/Wrust/13544

https://www.sputnikmusic.com/bands/Wrust/51550/%20[/more]

Register
(6) DiegoMassakre, jollo, Mist13Signifier, Razorbladeswaltz, Rosen, varlam4,
Nov 21 2017, 07:30:30 Wrust - Intellectual Metamorphosis (2013)


*Artist: Wrust
*Album: Intellectual Metamorphosis
*Year: 2013
*Genre: Death Metal
*Country: Botswana
*Format: mp3@VBR235kbps
*Size: 89MB

Tracklist:
01. Souls Of The Blackened 02:37
02. Brain Spasm 03:44
03. Destiny Of Fate 04:09
04. Spiral Of Torture 04:25
05. Hate'em All 03:03
06. God Of The Insane 03:11
07. The Day Of The Sacrifice 05:13
08. Poison 04:14
09. Kingdom Of Death 03:31
10. Gravedigger 05:30
11. Who Is To Blame 03:38
12. Ride The Blade 04:08
13. Caress The Soul 04:36
******************************
Total playing time: 51:59

[more=Extended info]"Wrust" is a talented band from Botswana (Gaborone) formed in 2000. This is their second full length Album.

https://www.metal-archives.com/bands/Wrust/13544

https://www.sputnikmusic.com/bands/Wrust/51...0<br%20/>[/more]

Register
(12) andreikun, DiegoMassakre, jollo, LUCASDEATH, metala, METALHUNTER, Mist13Signifier, Rosen, SymbyoticEntity, THROWER666, varlam4, vyacheslav,
Nov 6 2017, 22:29:40 Counterparts - You're Not You Anymore (2017)


*Artist: Counterparts
*Album: You're Not You Anymore
*Year: 2017
*Genre: Metalcore/Melodic Hardcore
*Country: Canada
*Format: mp3@CBR320kbps
*Size: 67MB

Tracklist:
01. Walk Away Slowly 0:38
02. Bouquet 02:30
03. Arms Like Teeth 02:38
04. No Servant Of Mine 02:40
05. Haunt Me 03:17
06. Swim Beneath My Skin 02:54
07. Thieves 01:16
08. Rope 02:20
09. A Memory Misread 02:26
10. Fragile Limbs 03:05
11. You’re Not You Anymore 03:58
******************************
Total playing time: 27:42

[more=Extended info]Great Album! Highly Recommended!

Credits:
---------
Vocals – Brendan Murphy
Guitar – Adrian Lee
Guitar, Backing Vocals – Blake Hardman
Bass – Tyler Williams
Drums – Kyle Brownlee[/more]

[more=Technical info]
Input File: 03. Arms Like Teeth.mp3
Channels : 2
Sample Rate : 44100
Precision : 16-bit
Duration : 00:02:38.50 = 6989938 samples = 11887.6 CDDA sectors
File Size : 6.38M
Bit Rate : 322k
Sample Encoding: MPEG audio (layer I, II or III)
Comments :
Title=Arms Like Teeth
Artist=Counterparts
Album=You're Not You Anymore
Tracknumber=03/11
Year=2017
Genre=Melodic Hardcore / Metalcore

[/more]

Register
(6) DenisKov, djsema4, Ostinato, Rosen, sadmannn, varlam4,
Sep 8 2017, 15:03:04 Cannabis Corpse - Left Hand Pass (2017)
"The Fiends That Come To Steal The Weed Of The Deceased "
15.gif 15.gif 15.gif
(1) vosmidesijatye,
Aug 6 2017, 22:00:23 Bartholomeus Night - Survival [ep] (2003)
Thanks a lot for this rare gem. 9.gif pray.gif
(1) Borderline1991,
Oct 2 2016, 15:15:55 Insomnium - Winter's Gate (2016)
Lossless [FLAC]: 272MB [Link is not mine]:
Register
(1) Diflock,
Sep 14 2016, 19:08:52 Nick Cave And The Bad Seeds - Skeleton Tree (2016)
QUOTE(lucifix @ Sep 13 2016, 12:31:08) *
[youtube]BAMZYpZi_M4[/youtube]

Poor dear Nick. The horrible tragedy of losing his young adult son has clearly devastated him. It is heartbreaking.
(1) Ghostb,
Sep 12 2016, 19:28:04 Nick Cave And The Bad Seeds - Skeleton Tree (2016)


*Artist: Nick Cave And The Bad Seeds
*Album: Skeleton Tree
*Year: 2016
*Genre: Alternative Rock
*Country: Australia
*Format: mp3@CBR320kbps
*Size: 85MB

Tracklist:
01. Jesus Alone 05:52
02. Rings Of Saturn 03:29
03. Girl In Amber 04:51
04. Magneto 05:22
05. Anthrocene 04:34
06. I Need You 05:58
07. Distant Sky [Additional Vocals: Else Torp] 05:36
08. Skeleton Tree 04:03
******************************
Total playing time: 39:45

[more=Extended info]Sad, totally melanchoilc & moving masterpiece;
Surely one of the greatest works by this great band and one of the greatest albums of the year so far, passionately acclaimed by critics.

Reviews for Skeleton Tree by Nick Cave & the Bad Seeds - Metacritic (94 Metascore!)
http://www.metacritic.com/music/skeleton-tree/nick-cave-the-bad-seeds[/more]

[more=Technical info]
Input File: 03 - Girl in Amber.mp3
Channels : 2
Sample Rate : 44100
Precision : 16-bit
Duration : 00:04:51.09 = 12836849 samples = 21831.4 CDDA sectors
File Size : 12.7M
Bit Rate : 350k
Sample Encoding: MPEG audio (layer I, II or III)
Comments :
Title=Girl in Amber
Artist=Nick Cave & The Bad Seeds
Album=Skeleton Tree
Tracknumber=03/08
Year=2016
Genre=Alternative Rock/ Avant-Garde/ Electronica
Discnumber=01/01

[/more]

Register
(21) Aresson, as71, Coroner, Diflock, dromord, ENDSMOUTH, fabriziomagno, gena, Hedgehog666, judaz, lucifix, Molotov, NachtWulf, nugorod, SatanicPanzer, thenecromancer, VALERY, vam1972, Zenial, zolotoiskatel, Абигор,
Aug 24 2016, 16:34:16 Running Wild - Rapid Foray (2016)
Lossless, 571 MB [Link not mine]:
Register
(3) Diflock, infiltrator, Sterh,
Aug 21 2016, 17:25:17 Gnome - Gnome [demo] (1995)
Wooow! Karet dorosteh salar! 9.gif pray.gif
(1) NachtWulf,
Jul 28 2016, 21:19:50 Lykaionas - Luciferian Fullmoon Necromancy (2016)
Lykaionas! spitggis0.gif Special thanks for this, my friend. You made my day. pray.gif
(1) Абигор,
Jul 14 2016, 23:03:37 Caïna - Christ Clad In White Phosphorus (2016)
Wooow! What a glorious day! headcrab.png I'm not dreaming?! Caïna, Baptism, Blood Red Throne and Coldworld, spitggis0.gif and all in a day! pray.gif
(1) Абигор,
Jul 4 2016, 20:58:37 Varathron - Live At The Swamp [demo] (2004)
New working [MediaFire] link added by me.
Specifics are the same as before.
(1) thenecromancer,
Jul 4 2016, 14:46:43 Kourosh Yaghmaei - Gol-e Yakh [best of/compilation] (1973)


*Artist: Kourosh Yaghmaei
*Album: Gol-e Yakh [best of/compilation]
*Year: 1973
*Genre: Psychedelic Folk Rock
*Country: Iran
*Format: mp3@VBR235kbps
*Size: 101MB

Tracklist:
01. Mosafer-E Shahr-E Baran (Passenger From The City Of Rain) 06:00
02. Reyhan (Azeri) 03:48
03. Khaar (Thorn) 07:00
04. Gol-E Yakh (The Wintersweet) 05:06
05. Paiz (Autumn) 04:20
06. Shirin Joon (Dear Shirin) 03:35
07. Entezar (The Waiting) 04:44
08. Saraab-E To (Mirage Of You) 04:22
09. Havar Havar (Shout Shout) 03:47
10. Asheghaneh (Romance) 04:32
11. Layla 04:27
12. Del Dareh Pir Misheh (My Heart's Getting Old) 02:54
13. Tan-E Choobi (Wooden Body) 03:31
******************************
Total playing time: 58:06

[more=Extended info]HIGHLY RECOMMENDED!
Re-released in 1991 as CD

Kourosh Yaghmaei is a great Iranian guitarist and singer, and the leading figure of Rock music in Iran, in fact a pioneer who'se known as "The King of Iranian Rock". Kourosh is best known internationally for his unique presentation of early Iranian Rock throughout the 1970s with Some great songs which have mostly remained fresh and amazing after more than 40 years!

Kourosh comes from a remarkable family of musicians and composers. His children are also well-known musicians and/or singers. He is also one of the unluckiest musicians ever, as the Iranian 1979 revolution gave rise to some impossible challenges and biased obstacles in the path of some of the greatest Iranian musicians who had decided to stay in their country. It is really a disturbing truth that Kourosh hasn't been allowed to release new albums or give concerts for his millions of fans since years ago.

I added this highly recommended gem of a release to introduce this great Iranian artist to genuine music lovers here, especially those who appreciate the timeless music of 1970s. I'm pretty sure that particularly songs like "Khaar", "Gol-e Yakh", "Paiz", etc. will enchant you! Just don't forget that these songs have been created up to 1973 in a country like Iran!

I hope you would enjoy it.

Official Website: www.kourosh-yaghmaei.com
Kourosh Yaghmaei - Wikipedia, the free encyclopedia
https://en.wikipedia.org/wiki/Kourosh_Yaghmaei
[/more]

Register
(1) NachtWulf,
Jun 30 2016, 17:53:22 Dio - Rares In The Dark [bootleg] (2013)


*Artist: Dio
*Album: Rares In The Dark [bootleg]
*Year: 2013
*Genre: Heavy Metal
*Country: United States
*Format: mp3@CBR320kbps
*Size: 250MB

Tracklist:
CD 1
01. Sitting In A Dream (From Roger Glover - Butterfly Ball 1974) 03:41
02. Love Is All (From Roger Glover - Butterfly Ball 1974) 03:14
03. Homeward (From Roger Glover - Butterfly Ball 1974) 04:17
04. To Live For The King (From Kerry Livgren - Seeds Of Change 1980) 05:00
05. Mask Of The Great Deceiver (From Kerry Livgren - Seeds Of Change 1980) 07:38
06. Time To Burn (From Dio - Intermission 1986) 04:26
07. Hide In The Rainbow (From OST - Top Gun 1986) 03:57
08. Stars (From Hear 'N' Aid 1986) 07:17
09. God Hates Heavy Metal (From Dio - Angry Machines Japanese Bonus 1996) 03:45
10. The Prisoner Of Paradise (From Dio - Master Of the Moon, bonus track 2004) 04:00
11. Electra (Last Single 2010) 06:26

CD 2
01. Welcome To My Nightmare (Alice Cooper cover 1999) 05:11
02. Tonite (From Eddie Ojeda - Axes 2 Axes 2006) 03:26
03. What Cost War (From Munitaka Higuchi & Dream Castle - Free World 1997) 04:10
04. The Chase (From Queensryche - Operation: MindcrimeII 2006) 03:07
05. Dream On (Feat. By Yngwie Malmsteen)( Tribute To Aerosmith 1999) 04:30
06. God Rest Ye Merry Gentlemen (feat. Tony Iommi, Rudy Sarzo, Simon Wright) (We Wish You A Metal Xmas And A Headbanging New Year 2010) 04:07
07. I Spy (From Girlschool - Legacy 2008) 04:09
08. The Devil Cried (From Black Sabbath - The Dio Years 2007) 06:01
09. Shadow Of The Wind (From Black Sabbath - The Dio Years 2007) 05:40
10. Ear In The Wall (From Black Sabbath - The Dio Years 2007) 04:04
11. The Code (From The Rods - Vengeance 2011) 05:14
12. Metal Will Never Die (From David ''Rock'' Feinstein - Bitten By The Beast) 05:19
******************************
Total playing time: 1:48:39

[more=Extended info]A collection of partly rare tracks from great Ronnie James Dio’s career, including his Dio band & Black Sabbath,
and also some songs featuring Dio as guest vocalist.[/more]

[more=Technical info]
Input File: 01 - Welcome to My Nightmare (Alice Cooper cover, 1999).mp3
Channels : 2
Sample Rate : 44100
Precision : 16-bit
Duration : 00:05:11.10 = 13719422 samples = 23332.4 CDDA sectors
File Size : 12.4M
Bit Rate : 320k
Sample Encoding: MPEG audio (layer I, II or III)
Comments :
Title=Welcome to My Nightmare (Alice Cooper cover, 1999)
Artist=Ronnie James Dio
Album=Rares in the Dark
Tracknumber=01/12
Year=2013
Genre=Hard Rock/Heavy Metal
Discnumber=02/02

[/more]

Register
(11) CountGrudgeula, Diflock, eisenfaust, infiltrator, Jurmagund, Lord Noctua, megorra, morbidangelo, Rosen, varlam4, wgs73,
Jun 12 2016, 12:52:05 Fjörd & Drunemeton - A New Dawn Shall Rise/The Sacred Grove [split] (2016)
Cloud.mail link (Not mine):
Register
(7) Angeldemon617, artscald, obituarydark, recber, stormhatt, Stutthof, ZA670,

24 Pages V   1 2 3 > » 
- Lo-Fi Version Support form
Copyrights and abuse reports form
Time is now: 14th December 2019 - 03:15:39