Welcome Guest ( Log In | Register )

История благодарностей участнику varyag ::: Спасибо сказали: 364 раз(а)
Дата поста: В теме: За сообщение: Спасибо сказали:
Sep 14 2016, 11:02:21 Black Metal в лицах (3) Hostis, infiltrator, suseka,
Dec 8 2013, 14:59:12 Mindly Rotten - The Most Exquisite Agonies (2005)
последний пост с лосем обновлен
(1) Дерсу Узала,
Dec 8 2013, 14:50:50 Mindly Rotten - Proliferation Of Disaster (2011)
Ссылка с лосем в 12 сообщении обновлена
(1) Дерсу Узала,
Apr 21 2013, 07:06:32 Massemord - A Life-Giving Power Of Devastation (2013)
на обложке отмудоханный Санта? crazy.gif 1488.gif
(2) Premature_Devotion, SSBandera,
Apr 7 2013, 22:10:37 Y'ha-nthlei - Vol 1: The Night Opens On The Brink Of The Abyss (2012)
ЦИТАТА(Un4given @ 7th April 2013 - 22:19:25) *
Хотя откровенно говоря, альбомчик на пару раз максимум, уж больно предсказуемо всё

зато по Лавкрафту gop_spb.gif headcrab.png
(1) Necromag,
Apr 6 2013, 18:27:19 Cryptik Howling - Synthetic Ascension Design (2013)
ЦИТАТА(gerb @ 6th April 2013 - 21:10:29) *
Я вот все понять не могу,а где здесь-Melodic Black Metal находится-Melodic

там же где и у melodic death metal команд вестимо - музыка не такая брутальная\нещадная к слуху неподготовленного слушателя - меньше используется эффект дисторшна, характерная гитарная игра (чистые соляки например) или присутствие синтезатора имеются.
(1) Герб,
Mar 28 2013, 12:05:12 Tormentia - W Obronie... (2013)
Бодрячковый такой "милитаристический" я бы даже сказал хэви, даже наверно что-то потяжелее чем просто хэви.
(1) добрыйКот,
Mar 24 2013, 19:59:33 October Falls - The Plague Of A Coming Age (2013)
Все ссылки мертвы. Перезалил.

Password: metalarea.org


Register
(10) aorta2, AwaitingDawn, barlenan, MAYH, Model FEAR, parashurama, Shadowlord, t0ffik, TeamatSE, vasiljev_sergej,
Jan 22 2013, 13:46:14 Besvikelsens Dystra Monotoni - Dark And Cold [best of/compilation] (2012)


*Artist: Besvikelsens Dystra Monotoni
*Album: Dark And Cold [best of/compilation]
*Year: 2012
*Genre: Experimental/Ambient Black Metal
*Country: Russian Federation
*Format: mp3@CBR320kbps
*Size: 66MB

Tracklist:
1.The Golden Shot (In Memory of D.E.) 06:54
2.March of the Misantrophe (Diabolicum cover) 02:17
3.My Dreams Come True 05:05
4.The First Flight to the Stars (Outro) 06:00
5.Svart Industriell Svalbard (Remix) 04:48
******************************
Total playing time: 25:04



[more=Extended info]


Input File: 0.The Golden Shot(In Memory of D.E.) .mp3
Channels : 2
Sample Rate : 44100
Precision : 16-bit
Duration : 00:06:54.04 = 18259296 samples = 31053.2 CDDA sectors
File Size : 16.6M
Bit Rate : 320k
Sample Encoding: MPEG audio (layer I, II or III)
Comments :
Title=The Golden Shot(In Memory of D.E.)
Artist=Besvikelsens Dystra Monotoni
Album=Dark and Cold (Compilation)
Year=2012
Genre=Black Metal

[/more]

Register
(8) Constantinus I, kefka, Reverend, senecazm, spiritualdecay666, tont, varlam4, vasiljev_sergej,
Jan 22 2013, 13:39:36 Besvikelsens Dystra Monotoni - III (2012)


*Artist: Besvikelsens Dystra Monotoni
*Album: III
*Year: 2012
*Genre: Experimental Black Metal
*Country: Russian Federation
*Format: mp3@CBR320kbps
*Size: 67MB

Tracklist:
1.Min Besvikelse 06:25
2.Cold Space 07:31
3.Beginning of the End 04:11
4.Night Monolith 05:46
5.Cosmic Gods 04:55
6.The Lamp 02:36
******************************
Total playing time: 31:24



[more=Extended info]


Input File: 1.Besvikelsens Dystra Monotoni - Min Besvikelse.mp3
Channels : 2
Sample Rate : 44100
Precision : 16-bit
Duration : 00:06:25.67 = 17008223 samples = 28925.5 CDDA sectors
File Size : 15.4M
Bit Rate : 320k
Sample Encoding: MPEG audio (layer I, II or III)
Comments :
Title=Min Besvikelse
Artist=Besvikelsens Dystra Monotoni
Album=III
Year=2012
Genre=Black Metal

[/more]

Register
(10) Constantinus I, matteo, metala, RENыч, Reverend, senecazm, tont, VALERY, varlam4, vasiljev_sergej,
Jan 22 2013, 13:02:01 Besvikelsens Dystra Monotoni - Kosmos//Khaos (2012)


*Artist: Besvikelsens Dystra Monotoni
*Album: Kosmos//Khaos
*Year: 2012
*Genre: Raw Black Metal
*Country: Russian Federation
*Format: mp3@CBR320kbps
*Size: 68MB

Tracklist:
1.Шаг в пустоту 05:31
2.Проклятие Царства Вавилонского 05:49
3.Поганая молодежь (Гр.Об cover) 02:37
4.Kosmos 04:26
5.Жизнь - дерьмо 04:27
6.Погружение в горизонт событий 03:56
7.Khaos 03:32
******************************
Total playing time: 30:18



[more=Extended info]
[youtube]DgM8qgcC-6I[/youtube]


Input File: 1.Шаг В Пустоту(Step Into The Void).mp3
Channels : 2
Sample Rate : 44100
Precision : 16-bit
Duration : 00:05:31.89 = 14636261 samples = 24891.6 CDDA sectors
File Size : 13.3M
Bit Rate : 320k
Sample Encoding: MPEG audio (layer I, II or III)
Comments :
Title=Г?Г ГЈ Г‚ ГЏГіГ±ГІ”ГІГі(Step Into The Void)
Artist=Besvikelsens Dystra Monotoni
Album=Kosmos//Khaos
Tracknumber=1
Year=2012
Genre=Black Metal

[/more]

Register
(12) Constantinus I, kefka, neoatheist, Orkkh, RENыч, Reverend, SIAVASH, svartrest, tont, VALERY, varlam4, vasiljev_sergej,
Jan 9 2013, 18:11:23 Njiqahdda - Serpents In The Sky (2013)
Интервью на русском: http://blacksunrisewebzine.narod2.ru/Intervyu/njiqahdda/
(1) vosmidesijatye,
Nov 29 2012, 03:28:13 Psilocybe Larvae - The Labyrinth Of Penumbra (2012)
А уж обложка-то какая шикарная - как дедушка Говард Филлипс завещал.
(2) infiltrator, Reverend,
Nov 28 2012, 00:36:50 Fields Of The Nephilim - Mourning Sun (2005)


*Artist: Fields Of The Nephilim
*Album: Mourning Sun
*Year: 2005
*Genre: Gothic Rock
*Country: United Kingdom
*Format: mp3@CBR320kbps
*Size: 139MB

Tracklist:
1. Shroud (Exordium)
2. Straight To The Light
3. New Gold Dawn
4. Requiem (Le Veilleur Silencieux)
5. Xiberia (Seasons In The Ice Cage)
6. She
7. Mourning Sun
8. In The Year 2525
******************************
Total playing time: 1:04:25



[more=Extended info]Password: metalarea.org


Input File: 04-Requiem (Le Veilleur Silencieux).mp3
Channels : 2
Sample Rate : 44100
Precision : 16-bit
Duration : 00:07:21.00 = 19448100 samples = 33075 CDDA sectors
File Size : 17.7M
Bit Rate : 320k
Sample Encoding: MPEG audio (layer I, II or III)
Comments :
Title=Requiem (Le Veilleur Silencieux)
Artist=Fields of the Nephilim
Album=Mourning Sun
Tracknumber=04
Genre=Gothic Rock

[/more]

Register
(8) dead can dance, Disfigurator, Infidel, Jurmagund, marilin, SAPOGi, Sky7Daemon, Vertigo,
Nov 28 2012, 00:34:16 Fields Of The Nephilim - Fallen (2002)


*Artist: Fields Of The Nephilim
*Album: Fallen
*Year: 2002
*Genre: Gothic Rock
*Country: United Kingdom
*Format: mp3@CBR320kbps
*Size: 86MB

Tracklist:
1. Fields Of The Nephilim - Dead To The World
2. From The Fire
3. Thirst
4. Darkcell AD
5. Subsanity
6. Hollow Doll
7. Fallen
8. Deeper
9. Premonition
10. One More Nightmare (Trees Come Down AD)
******************************
Total playing time: 40:17



[more=Extended info]Password: metalarea.org


Input File: 05-Subsanity.mp3
Channels : 2
Sample Rate : 44100
Precision : 16-bit
Duration : 00:04:32.00 = 11995200 samples = 20400 CDDA sectors
File Size : 10.9M
Bit Rate : 320k
Sample Encoding: MPEG audio (layer I, II or III)
Comments :
Title=Subsanity
Artist=Fields of the Nephilim
Album=Fallen
Tracknumber=05
Year=2002
Genre=Gothic Rock

[/more]

Register
(8) BladeOvDarkness, Cartman223, dead can dance, Disfigurator, Jurmagund, princeshr, VALERY, Vertigo,
Nov 28 2012, 00:31:34 The Nefilim - Zoon (1996)


*Artist: The Nefilim
*Album: Zoon
*Year: 1996
*Genre: Industrial Death/Gothic Metal
*Country: United Kingdom
*Format: mp3@CBR320kbps
*Size: 110MB

Tracklist:
1. Still Life
2. Xodus
3. Shine
4. Penetration
5. Melt (The Catching Of The Butterfly)
6. Venus Decomposing
7. Pazuzu (Black Rain)
8. Zoon (Parts 1&2) (Saturation)
9. Zoon (Part 3) (Wake World)
10. Coma
******************************
Total playing time: 49:02



[more=Extended info]Password: metalarea.org

Вокалист Карл МакКой собрал эту команду после распада Fields of the Nephilim


Input File: 04-Penetration.mp3
Channels : 2
Sample Rate : 44100
Precision : 16-bit
Duration : 00:03:31.60 = 9331560 samples = 15870 CDDA sectors
File Size : 8.46M
Bit Rate : 320k
Sample Encoding: MPEG audio (layer I, II or III)
Comments :
Title=Penetration
Artist=The Nefilim
Album=Zoon
Tracknumber=04
Year=1996
Genre=Gothic Death

[/more]

Register
(5) Cartman223, Coroner, dead can dance, VALERY, zolotoiskatel,
Nov 28 2012, 00:24:52 Fields Of The Nephilim - Elizium (1990)


*Artist: Fields Of The Nephilim
*Album: Elizium
*Year: 1990
*Genre: Gothic Rock
*Country: United Kingdom
*Format: mp3@CBR320kbps
*Size: 106MB

Tracklist:
1. (Dead But Dreaming)
2. For Her Light
3. At The Gates Of Silent Memory
4. (Paradise Regained)
5. Submission
6. Sumerland (What Dreams May Come)
7. Wail Of Sumer
8. And There Will Your Heart Be Also
******************************
Total playing time: 49:00



[more=Extended info]Password: metalarea.org


Input File: 04-Moonchild.mp3
Channels : 2
Sample Rate : 44100
Precision : 16-bit
Duration : 00:05:40.00 = 14994000 samples = 25500 CDDA sectors
File Size : 13.6M
Bit Rate : 321k
Sample Encoding: MPEG audio (layer I, II or III)
Comments :
Title=Moonchild
Artist=Fields of the Nephilim
Album=The Nephilim
Tracknumber=04
Year=1988
Genre=Gothic Rock

[/more]

Register
(9) dead can dance, Jurmagund, marilin, nsmetalhead, princeshr, Road, Un4given, Velkaarn, Vertigo,
Nov 28 2012, 00:22:25 Fields Of The Nephilim - The Nephilim (1988)


*Artist: Fields Of The Nephilim
*Album: The Nephilim
*Year: 1988
*Genre: Gothic Rock
*Country: United Kingdom
*Format: mp3@CBR320kbps
*Size: 120MB

Tracklist:
1. Endemoniada
2. The Watchman
3. Phobia
4. Moonchild
5. Chord Of Souls
6. Shiva
7. Celebrate
8. Love Under Will
9. Last Exit For The Lost
******************************
Total playing time: 55:43



[more=Extended info]Password: metalarea.org


Input File: 04-Moonchild.mp3
Channels : 2
Sample Rate : 44100
Precision : 16-bit
Duration : 00:05:40.00 = 14994000 samples = 25500 CDDA sectors
File Size : 13.6M
Bit Rate : 321k
Sample Encoding: MPEG audio (layer I, II or III)
Comments :
Title=Moonchild
Artist=Fields of the Nephilim
Album=The Nephilim
Tracknumber=04
Year=1988
Genre=Gothic Rock

[/more]

Register
(4) princeshr, Road, Vertigo, xska,
Nov 27 2012, 13:54:58 Mithotyn - Gathered Around The Oaken Table (1999)
ты так всю музыку слушаешь - визуально? 1488.gif
(1) green7272,
Nov 26 2012, 17:28:30 Саундтрек Апокалипсиса (1) Alex5,
Nov 25 2012, 15:21:08 Dead Silent Slumber - Entombed In The Midnight Hour (1999)
loseless
Register



(1) wazi,
Nov 25 2012, 08:58:35 Vargleide - Лишь прах, окалину и выжженую землю оставляя... (2000)
ЦИТАТА(Victim of fate @ 25th November 2012 - 10:23:25) *
я понимаю что 2000 год......но такая гадость,что стёр сразу.

Это BlazeBirth Hall, не каждому проникнуть дано в силу их слога и атмосферу! genius.gif

(2) fuck3r, Vrolok,
Nov 25 2012, 08:40:26 Drum XTC - Славянские ритуальные барабаны (2000)
ЦИТАТА(Torolv @ 25th November 2012 - 09:03:39) *
Н-да, почитав сопроводительные слова, взгрустнулось: похоже, что не упомянув африканские барабаны, сейчас мало о чём могут сказать...

Это комментарий человека у которого брал сей материал и он расчитан на широкую аудиторию, в массовом сознании присутствие барабанов в фолковой аутентичной музыке ассоциируется все же наверно более с африканской музыкой нежели какой-то иной.
ЦИТАТА(Torolv @ 25th November 2012 - 09:03:39) *
Посмотрите на название коллектива

А что с названием не так? Или оно обязательно должно быть на древнеславянском иначе не ОК? И да - не факт что это и есть название коллектива, у диска даже обложки не было по заявлениям первоисточника, возможно названия как такового тоже и это сборник разных исполнителей.
(1) Torolv,
Nov 25 2012, 02:48:33 Украинские козацкие песни - Українські народні козацькі пісні та думи (2005)


*Artist: Украинские козацкие песни
*Album: Українські народні козацькі пісні та думи
*Year: 2005
*Genre: Folk
*Country: Ukraine
*Format: mp3@CBR256kbps
*Size: 121MB

Tracklist:
01 Засвистали козаченьки
02 Ой, на горі, та й женці жнуть
03 Ой, віє вітер, віє буйний
04 Ой, кряче, кряче да чорненький ворон
05 Їхав, їхав козак містом
06 По діброві вітер віє
07 Українська героїчна поема "Байда"
08 Гей, січ іде, красен мак цвіте
09 Ох, і не стелися, хрещатий барвінку
10 Чорна рілля ізорана
11 Дума про Федора безродного
12 Із-за гори сніжок летить
13 Козака несуть
14 Ой, із-за гір, із-за гір
15 На смерть козака-бандуриста
16 Ой, Боже, Боже, зглянься на нас
17 Гей, по синьому морю
18 Як засядем, браття, коло чари
19 Ой, у полі верба
20 Гей, там на горі січ іде
******************************
Total playing time: 1:18:50



[more=Extended info]Виконують: Іван Козловський, Констянтин Огнєвой,
Держ.засл.капела бандуристів України, хорова капела "Думка",
ансамбль "Хрещатий Яр", Анс. пісні й танцю Західного прикорд. округу,
тріо "Золоті ключи", Анс. "Червона калина", Євген Зубко, гурт "Чумаки",
вокальне тріо Українського народного хору ім.Г.Верьовки, капела "Кооператор",
Федір Жарко, Павло Супрун, Андрій Бобир, квартет "Гетьман", Степан Степан.[/more]

Register
(9) CelticSPB, Dimhold, Genuine Thrashiac, GoatFucker, Hedgehog666, ivreactor, karut, neoatheist, waldemardr,
Nov 25 2012, 02:37:58 Drum XTC - Славянские ритуальные барабаны (2000)


*Artist: Drum XTC
*Album: Славянские ритуальные барабаны
*Year: 2000
*Genre: Folk
*Country: Russian Federation
*Format: mp3@CBR320kbps
*Size: 78MB

Tracklist:
1 Замова 3:45
2 Зеленая липа 4:12
3 Купала 3:02
4 Возьми любовь 0:30
5 Лятела гусачка 6:43
6 Три ангалы 5:18
7 Замова 5:37
8 Яблонь мая 3:32
9 Преплакнула 2:49
******************************
Total playing time: 35:28

[more=Extended info]"Сложно поверить, что это - действительно славянская музыка. Услышав музыку с этого альбома первый раз, можно подумать, что это какие-то африканские барабаны. Но это - аутентичная ритуальная славянская музыка." Насколько это соответствует действительности утверждать не берусь, оставлю на суд слушателя, местами присутствует современная явно не аутентичная обработка. =)


Input File: 08 - Яблонь моя.mp3
Channels : 2
Sample Rate : 44100
Precision : 16-bit
Duration : 00:03:34.96 = 9479912 samples = 16122.3 CDDA sectors
File Size : 8.60M
Bit Rate : 320k
Sample Encoding: MPEG audio (layer I, II or III)
Comments :
Title=Яблонь моя
Artist=Славянские ритуальные барабаны
Album=Славянские ритуальные барабаны
Tracknumber=8/9
Year=1998
Genre=Folk

[/more]

Register
(1) lucifix,

4 Pages V   1 2 3 > » 
- Lo-Fi Version Support form
Copyrights and abuse reports form
Time is now: 12th December 2019 - 09:37:40