Welcome Guest ( Log In | Register )

История благодарностей участнику Metropolis ::: Спасибо сказали: 2215 раз(а)
Дата поста: В теме: За сообщение: Спасибо сказали:
Mar 8 2020, 18:52:25 Crematory - Unbroken (2020)
03. Rise and Fall
играет в голове уже пару дней, такая грусть, аж слезы наворачиваются, сентиментальный стал с годами.
К остальному пока не прислушивался.
Спасибо Crematory!
(4) bestmen, infiltrator, Maestrovs, mintare,
Mar 7 2020, 15:30:39 Crystal Coffin - The Transformation Room (2020)
Участники сладж-дум группы Koma, по релизам которой были малочисленные, но восторженные отзывы.
Послушал я Koma, сравнил...складывается впечатление, что команде просто захотелось поиграть чуть побыстрее, не меняя особо никаких настроек.
Непонятно, кто им сказал что они заиграли "мелодик блэк", но наверное это не важно. Важно то, что ничего хорошего не получилось.


(1) isvili,
Sep 22 2019, 14:47:22 Finsterforst - Zerfall (2019)
Вчера я ехал по трассе "Кола", перебирал ранее скаченные треки в проигрывателе. Отлично зашла песня Алисы "Путь держим на Север", с удовольствием послушал Jimmy Barnes с его новым альбомом. И на середине пути, я решил включить Finsterforst, уж очень обложка понравилась, в тему с природой прохладного полуострова за окном автомобиля. Это было нечто, приятная теплая волна нахлынула на меня, успокоила, и так до самого дома.
(1) MeatWolf,
May 9 2018, 20:47:59 Kampfar - Mare (2011)
Моя старая загрузка живая.

Register
(1) Авел,
May 9 2018, 20:38:19 Amogh Symphony - Quantum Hack Code (2010)
Register
(3) FunZombie, kimkayoung, varlam4,
May 9 2018, 18:54:08 Ages - The Malefic Miasma (2015)
Register
(3) dermarsoran, dimmannius, kimkayoung,
May 9 2018, 15:57:33 Valkija - Avengers Of Steel (2004)
Register
(2) lawronchik, poeira,
May 9 2018, 15:42:25 Rabia Sorda - The World Ends Today (2018)


*Artist: Rabia Sorda
*Album: The World Ends Today
*Year: 2018
*Genre: Dark Electro/Industrial
*Country: Mexico
*Format: mp3@CBR320kbps
*Size: 190MB

Tracklist:
01.TWET! 0:14
02.Perfect Black 4:28
03.So Slow It Hurts 4:41
04.Estás ahí? 1:20
05.Violent Love Song 4:00
06.We're not Machines 4:05
07.Estas Conmigo... 0:15
08.Shut Up and Dance! 3:52
09.Nobody 4:40
10.Dekadenz 4:14
11.Rebellion of The Wicked 4:07
12.The World Ends Today 4:19
13.Despierta 0:31
14.Møther 4:29
15.Don't Run! (The Evil Within) 3:28
16.Words in Scars 3:53
17.Перезвони Мне 0:16
18.Demolición 2:51
19.Explota! (La Bomba En Mi Cabeza) 5:49
20.Hasta Nunca... 3:12
21.Guten Morgen! 0:20
22.Dekadenz (Cypecore RMX) 4:04
23.Violent Love Song (Chemical Sweet Kid RMX) 3:56
24.We're not Machines (Nostalgic Machine / Cover Version by Prismatic Shapes) 3:24
25.Violent Love Song (72 hrs. Panic Attack Vitam non Mortem RMX) 3:51
******************************
Total playing time: 1:20:19



[more=Technical info]
Input File: 02_-_Rabia_Sorda_-_Perfect_Black.mp3
Channels : 2
Sample Rate : 44100
Precision : 16-bit
Duration : 00:04:28.28 = 11831104 samples = 20120.9 CDDA sectors
File Size : 11.0M
Bit Rate : 329k
Sample Encoding: MPEG audio (layer I, II or III)
Comments :
Title=Perfect Black
Artist=Rabia Sorda
Album=The World Ends Today
Tracknumber=02/25
Year=2018

[/more]

Register
(9) gwar, Hell_Is_Here, Infidel, infiltrator, snot, Tarkron, tOmV, wtk.412, Xor,
May 9 2018, 14:42:58 Erben Der Schöpfung - Narben Der Zeit (2009)
Register
(1) Samogon,
May 8 2018, 22:51:25 MajorVoice - A New Chapter (2017)


*Artist: MajorVoice
*Album: A New Chapter
*Year: 2017
*Genre: Gothic Rock/Metal
*Country: Germany
*Format: mp3@CBR320kbps
*Size: 102MB

Tracklist:
1.Shot In The Silence 4:53
2.Stay 4:23
3.Wicked Game 4:38
4.Here With Me 3:48
5.Woderful Life 4:13
6.The Great Commandment 3:09
7.Summertime Sadness 3:54
8.My Sick Mind TV 3:16
9.Never Let Me Down Again 4:23
10.White Wedding 3:48
11.Drive 3:51
******************************
Total playing time: 44:16




[more=Technical info]
Input File: 01. Shot In The Silence.mp3
Channels : 2
Sample Rate : 44100
Precision : 16-bit
Duration : 00:04:53.51 = 12943747 samples = 22013.2 CDDA sectors
File Size : 11.9M
Bit Rate : 323k
Sample Encoding: MPEG audio (layer I, II or III)
Comments :
Title=Shot In The Silence
Artist=MajorVoice
Album=A New Chapter
Tracknumber=1
Year=2017
Genre=Gothic/Rock

[/more]

Register
(15) ace73pq, AHBAnep, ASkyThatBurns, avkruchinin, Cartman223, Fatalv, infiltrator, Jurmagund, Maximvs, metala, Mogozoz, Rosen, snot, v.v.m, VALERY,
Jun 13 2017, 19:51:20 Nickelback - Feed The Machine (2017)


*Artist: Nickelback
*Album: Feed The Machine
*Year: 2017
*Genre: Modern Hard Rock/Post-Grunge
*Country: Canada
*Format: mp3@CBR320kbps
*Size: 100MB

Tracklist:
01.Feed The Machine 5:03
02.Coin For The Ferryman 4:50
03.Song on Fire 3:51
04.Must Be Nice 3:43
05.After The Rain 3:35
06.For The River 3:29
07.Home 3:53
08.The Betrayal (Act III) 4:21
09.Silent Majority 3:52
10.Everytime We're Together 3:53
11.The Betrayal (Act I) 2:42
******************************
Total playing time: 43:12

[more=Extended info][youtube]qKgfcd6lqp4[/youtube][/more]

[more=Technical info]
Input File: 01 Feed The Machine.mp3
Channels : 2
Sample Rate : 44100
Precision : 16-bit
Duration : 00:05:07.42 = 13557046 samples = 23056.2 CDDA sectors
File Size : 12.3M
Bit Rate : 320k
Sample Encoding: MPEG audio (layer I, II or III)
Comments :
Title=Feed The Machine
Artist=Nickelback
Album=Feed The Machine
Tracknumber=01
Year=2017
Genre=Rock

[/more]

Register
(14) Aresson, avkruchinin, BRUTAL06, cancer1974, Diflock, Emhyr var Emreis, hammer, Hedgehog666, infiltrator, lyukon, MeatWolf, METALHUNTER, stone88, StoneTemple,
Jun 11 2017, 19:45:52 T.A.S.S. - Suck (1996)


*Artist: T.A.S.S.
*Album: Suck
*Year: 1996
*Genre: Industrial
*Country: Germany
*Format: ogg@418kbps
*Size: 137MB

Tracklist:
1.Channel Zapping 0:39
2.Right Now 5:49
3.Last Call 4:06
4.Let's 4:37
5.The Company of Strangers 3:59
6.Lust for Life 3:55
7.Toys 3:51
8.King's Cross Girl 1:59
9.Dave's Place 2:11
10.Greenwar 3:56
11.Turn Me Off 3:45
12.The Big Crash 6:09
******************************
Total playing time: 44:56

[more=Extended info][youtube]0gUCJ_Gbxq8[/youtube][/more]

Register
(2) Bruce, gwar,
Jun 11 2017, 19:08:24 T.A.S.S. - Maniafesto (1994)


*Artist: T.A.S.S.
*Album: Maniafesto
*Year: 1994
*Genre: Industrial
*Country: Germany
*Format: ogg@454kbps
*Size: 146MB

Tracklist:
01.Hymn 0:40
02.Snakedance 3:27
03.If You Don't Like my Dog 3:24
04.7 Deadly Sins 4:26
05.Never Say Never 3:19
06.Shame 3:26
07.All Gods Children 3:11
08.Hit The Whip 5:04
09.Metaliturgy 3:19
10.California ьber alles 3:08
11.Dolls 3:23
12.Ever Get The Feeling? 4:08
13.Hymn/Chaos Reprise 3:09
******************************
Total playing time: 44:04

[more=Extended info][youtube]qPiqegJincw[/youtube]
[youtube]Bm0ntqpwB3E[/youtube][/more]

Register
(3) Bruce, gwar, metala,
Jun 11 2017, 18:41:27 Lie For A Secret - T​.​I​.​T​.​S. (This Is The Shit) (2017)


*Artist: Lie For A Secret
*Album: T​.​I​.​T​.​S. (This Is The Shit)
*Year: 2017
*Genre: Metalcore/Deathcore
*Country: Italy
*Format: mp3@CBR320kbps
*Size: 77MB

Tracklist:
1.N°1 2:00
2.Fuddled Dance 4:36
3.Salvation 3:27
4.M.A.F.I.A. (My Anger Fucks It All) 3:49
5.Pedrito's Mustache 1:52
6.I Am Hell 3:47
7.Spit My Name 3:26
8.The Clock 4:04
9.Invicible Angel 4:37
******************************
Total playing time: 31:38

[more=Extended info][youtube]54zisecnknk[/youtube][/more]

[more=Technical info]
Input File: 02 Fuddled Dance.mp3
Channels : 2
Sample Rate : 44100
Precision : 16-bit
Duration : 00:04:35.77 = 12161633 samples = 20683 CDDA sectors
File Size : 11.2M
Bit Rate : 324k
Sample Encoding: MPEG audio (layer I, II or III)
Comments :
Title=Fuddled Dance
Artist=Lie For A Secret
Album=T.I.T.S. (This is The Shit)
Tracknumber=2
Year=2017

[/more]

Register
(5) deftones, DenisKov, METALHUNTER, Rosen, varlam4,
Jun 10 2017, 21:36:59 Baba Yaga - Secret Combination (1999)
mp3 320 kbps

Register
(2) Aresson, varlam4,
Jun 10 2017, 21:35:58 Baba Yaga - Where Will You Go (1993)
OGG Vorbis Quality 10.0

Register
(1) varlam4,
Jun 10 2017, 21:24:19 Scorpions - Virgin Killer (1976)
Flac [Japan SICP-20244]

Register
(1) thenecromancer,
Jun 10 2017, 20:34:54 Sister Sin - Black Lotus (2014)
mp3 320 kbps

Register
(1) wgs73,
Jun 9 2017, 23:47:02 Mistweaver - Tales From The Grave (2010)
mp3 320 kbps

Register
(4) Limburger, Ludwig Hagen, Luminous, Sanc,
Jun 9 2017, 23:44:29 Mistweaver - Age Of Darkness (2005)
mp3 320 kbps

Register
(2) Ludwig Hagen, Luminous,
Jun 9 2017, 23:42:17 Mistweaver - The Aftermath (2003)
mp3 320 kbps

Register
(3) alexeyinc, Ludwig Hagen, Luminous,
Jun 9 2017, 23:40:36 Mistweaver - Dream's Domain (2001)
mp3 320 kbps

Register
(2) Ludwig Hagen, Luminous,
Jun 9 2017, 23:39:11 Mistweaver - Sol Obscurabitur [ep] (2000)
mp3 192 kbps
Register
(2) Ludwig Hagen, Luminous,
Jun 9 2017, 23:21:19 Indica - Valoissa (2008)
mp3 320 kbps

Register
(2) Kaamos, Sanc,
Jun 9 2017, 23:19:54 Indica - Ikuinen Virta (2004)
mp3 320 kbps

Register
(1) Kaamos,

17 Pages V   1 2 3 > » 
- Lo-Fi Version Support form
Copyrights and abuse reports form
Time is now: 2nd June 2020 - 16:18:17