Welcome Guest ( Log In | Register )

История благодарностей участнику judaz ::: Спасибо сказали: 3754 раз(а)
Дата поста: В теме: За сообщение: Спасибо сказали:
Jan 14 2021, 19:13:02 Belliciste - Deathsworn (2021)
Превосходно. Напоминает дебютник Dismal Euphony без клавиш (хотя казалось бы, убери из музыки DЕ клавиши, и что там останется?).
Насчет вокала отлично сказано каментом выше. Могу только плюсануть.
(1) WOLAND,
Jan 5 2021, 18:10:00 Children Of Bodom - Hexed (2019)
Ну умер и умер.
(1) xax,
Jan 2 2021, 13:49:08 Krösis - Subconscious (2020)
ЦИТАТА(Krosis @ Jan 2 2021, 13:00:52) *
Придётся слушать.

И ник чуток поправить.
(3) infiltrator, Shadowman, Taakeferd,
Dec 30 2020, 04:13:45 Blood Red Fog - Fields Of Sorrow (2020)
Не впечатлило.
(1) ent404,
Dec 28 2020, 19:48:17 Skáphe - Skáphe³ (2020)
Ярчайший пример диссонансной херни.
(2) 6666666, ent404,
Dec 23 2020, 18:55:09 Туга - Мытарства [ep] (2020)
Максимально далекая от моих вкусов тягомотина. Сломался на предпоследнем треке.
(1) ent404,
Dec 23 2020, 06:37:51 Бѣсъ - Кощунства (2020)
Cover arts by Kukryniksy.
(3) Dantalian, infiltrator, StabWound,
Dec 22 2020, 14:30:07 Death - Scream Bloody Gore (1987)
ЦИТАТА(HviteGuden @ Dec 22 2020, 13:22:59) *
"Scream Bloody Gore" действительно ещё полностью не дошёл. Но и "Leprosy" тоже. Вот "Altars of Madness" - другое дело.

"Leprosy" потяжелей Алтарей будет. И вокал у Шульдинера помощней, чем у Винсента на тот момент. Так что, кто не полностью дошел - вопрос дискуссионный.
(1) Exorcist,
Nov 27 2020, 08:52:32 Ondskapt - Grimoire Ordo Devus (2020)
ЦИТАТА(FullofHate @ Nov 27 2020, 08:36:59) *
Музыка Ondskapt это как работа хитроzhопого менеджера в средней конторке, где он весь день ходит с серьезным видом по кабинетам с папкой в руках, но никто не знает чем фактически занят человек, потому что на самом деле он ничем не занят. Пьет чай, ходит курить каждый час, пишет пустые письма, совершает ненужные телефонные звонки, но первым бежит к банкомату в день зарплаты и убежден, что на нем держится весь результат.

Фуфло.

Прекрасная аналогия. 1488.gif

Ondskapt - группа из той категории, у которых не помнишь ни одной песни, но точно знаешь, что они квлт, классика и т.п. И потому могут себе позволить выпускать альбом с перерывом в 10 лет. Альбом, который ты обязательно послушаешь, удалишь и забудешь еще на 10 лет.

И в этом их отличие от упомянутого тут в каментах Svartsyn. Которые и альбомы выпускают чаще, и планку держат на высоком уровне, да и музыка у них поинтересней будет.
(3) crestfallen999, ent404, infiltrator,
Nov 27 2020, 07:07:19 Azarath - Saint Desecration (2020)
Проходняк.
(2) as71, infiltrator,
Nov 23 2020, 07:58:07 Inquisition - Black Mass For A Mass Grave (2020)
Ну-блэком сейчас мало кого удивишь, а вот чудесными меланхоличными пассажами на его фоне - очень даже.
Взрослая работа взрослых людей.
(4) Bulldozzzzzzer, ent404, noxspiritus, troll_swamp,
Nov 21 2020, 20:29:40 Undeath - Lesions Of A Different Kind (2020)
Уютный, ламповый gore-альбом.
(1) Metalass,
Nov 20 2020, 11:16:52 Guignol Noir - Mantric Malediction (2020)
Не знаю, где там психоделия. Музыкальный понос, облеченный в блэковую форму.
(1) ent404,
Nov 19 2020, 13:57:44 Sad - Misty Breath Of Ancient Forests (2020)
Безупречно.
(2) Daale, infiltrator,
Nov 19 2020, 08:52:47 Horna - Kuoleman Kirjo (2020)
Встретились как-то фанатик блэк-метала и фанатик Валерия Леонтьева. И давай хохотать друг над другом. /конец анекдота/
(6) Alexis The Best, Dantalian, DenisKov, ent404, FullofHate, infiltrator,
Nov 18 2020, 07:41:16 Wagner Ödegård - Om Kosmos Och De Tolv Järtekn (2020)
Грязный гаражный панкоблэк, как будто записанный в 88 году в Омске на ГрОб-рекордс. Хотя Вагнер вряд ли слышал о чем-то подобном.
По факту это его первый альбом, от которого я на полном серьезе кайфанул и угорел. В расширенный топ года.
(1) Premature_Devotion,
Nov 16 2020, 05:28:22 Ymir - Ymir (2020)
ЦИТАТА(Haunting @ Nov 14 2020, 14:37:17) *
Канонический black metal, сыгранный многими другими людьми уже не один десяток раз. Подобные альбомы либо чем-то цепляют, либо проходят мимо, оставляя после прослушивания лишь мысль "ну, black metal".

Второй вариант. "Ну блэк" как он есть.
(2) ent404, infiltrator,
Nov 10 2020, 17:48:03 Mulla - لماذا لا ترى ذلك (2020)
Вам правда не [мат->бан] из Ирака они или из Казахстана или еще откуда?
(3) CheCoola, ent404, infiltrator,
Nov 9 2020, 16:23:52 Mulla - لماذا لا ترى ذلك (2020)


*Artist: Mulla
*Album: لماذا لا ترى ذلك
*Year: 2020
*Genre: Black Metal
*Country: Iraq
*Format: mp3@CBR320kbps
*Size: 95MB

Tracklist:
1. يقودنا الله
2. المسافر
3. لماذا لا ترى ذلك
4. سوف تسمع هذا الصوت
5. انه يراقبك
6. نار
******************************
Total playing time: 41:26



[more=Technical info]
Input File: Mulla - لماذا لا ترى ذلك - 01 يقودنا الله.mp3
Channels : 2
Sample Rate : 44100
Precision : 16-bit
Duration : 00:04:25.97 = 11729277 samples = 19947.8 CDDA sectors
File Size : 10.7M
Bit Rate : 322k
Sample Encoding: MPEG audio (layer I, II or III)
Comments :
Title=يقودنا الله
Artist=Mulla
Album=لماذا لا ترى ذلك
Tracknumber=1
Year=2020
Genre=138

[/more]

Register
(23) 1968_janeart, AlexSmith, alikkon, CheCoola, dalek, frituz3, grimoir, infiltrator, kim666, Lamby90, noxspiritus, Occultas, pahail, randumbum, Rosen, Shadechaser, SilentNidhogg, thenecromancer, toly1917, VALERY, varlam4, vasiljev_sergej, wreak,
Oct 27 2020, 05:25:42 Kraken Duumvirate - The Stars Below, The Seas Above (2020)
Атмосферно и монструозно. И возможно, один из претендентов на альбом года, хоть и подобная эмбиент-фьюнеральщина вообще не моя тема. Но коли уж музыка хороша, то она хороша, вне зависимости от жанровых рамок и предпочтений.
(1) Razorbladeswaltz,
Oct 25 2020, 19:23:30 Mörk Gryning - Hinsides Vrede (2020)
Вегетарианское, выхолощенное музло, хоть и приемлемого качества. Переслушивать точно не буду.
П.С. 11 трек - очень хорошо.
(1) ent404,
Oct 19 2020, 10:02:50 Enslaved - Utgard (2020)
С почтением отношусь ко всей дискографии сабжа, но возвращаюсь периодически только к Vikingligr Veldi. Все прочие альбомы, особенно проговые, нравятся умом, но не сердцем. Вроде бы они безупречны и достойны всяческих топов, но послевкусие от них совершенно стерильное.
(2) Ghostb, Un4given,
Oct 19 2020, 08:13:54 Benediction - Scriptures (2020)
ЦИТАТА(asog @ Oct 18 2020, 22:26:43) *
Гыгык, диаметрально разные вкусы это Эминем и Стас Михайлов одновременно, а тут всё в одном роковом смертельно металичном направлении

А по мне как раз наоборот. Сорта разные, а субстанция одна. 1488.gif
(1) Shadowman,
Oct 18 2020, 04:37:22 Uada - Djinn (2020)
Бестолковая музыкальная графомания, какими они всегда и были. Вырубил на середине третьего трека.
(1) Bzth,
Oct 15 2020, 19:06:23 Benediction - Scriptures (2020)
Годный камбэк, но не супер-топовый. Типичный Benediction, как будто и не было 12-летнего перерыва.
(3) infiltrator, Metalass, Samaritianin,

51 Pages V   1 2 3 > » 
- Lo-Fi Version Support form
Copyrights and abuse reports form
Time is now: 18th January 2021 - 15:44:31