Welcome Guest ( Log In | Register )

История благодарностей участнику judaz ::: Спасибо сказали: 2626 раз(а)
Дата поста: В теме: За сообщение: Спасибо сказали:
Today, 09:47:04 Opera IX - The Gospel (2018)
ЦИТАТА(babanguida @ Nov 18 2018, 09:28:52) *
as bad as COF and as ridiculous as Dani Filth???

Фронтмена Оперы вживую не видел, поэтому сравнивать с Дани Филтом не могу. А по музыке да, примерно одинаковая херня.
(1) babanguida,
Nov 13 2018, 19:14:26 Dead Tongue - Disgorge Through The Eyes (2018)
Неплохой альбом. Пестиленсом отдает очень сильно. А еще Хайдуком. Все остальное мимо.
(2) Foneg, Samaritianin,
Nov 13 2018, 06:50:25 лучшие Death Metal альбомы 2018 (1) Thrashman,
Nov 12 2018, 06:59:59 Сатурналии (Антипопсовая голосовалка) Часть 7 - 2006-2008, тур 1
2006:
Ea - Ea Taesse
Elite - Bifrost
Head Control System - Murder Nature
Sad - Total Nothingness
SpiRitual - Pulse
Torture Killer - Swarm!
Urgehal - Goatcraft Torment
Vonn - Victim One: Agony
Weltbrand - The Cloud of Retaliation

2007:
Borgne - II
Borgne - III
Cirith Gorgor - Cirith Gorgor
Krohm - The Haunting Presence
Katalepsy - Musick Brings Injuries
Sad - A Curse in Disguise
Darkestrah - Epos
Walknut - Graveforests And Their Shadows

2008:
Angst Skvadron - Flukt
Blackdeath - Vortex
Burial Hordes - Devotion to Unholy Creed
Darkestrah - The Great Silk Road
Elite - We Own The Mountains
Khold - Hundre Ar Gammal
Old Wainds - Death Nord Kult
Supreme Pain - Cadaver Pleasures
Vordr - III
Сатанакозел - Рогатыя
(2) cancer1974, Deze,
Nov 10 2018, 18:31:33 Лучший альбом 2017 года в стиле Death Metal
ЦИТАТА(Exorcist @ Nov 8 2018, 09:54:44) *
Фуфел этот ваш Firespawn. И слушают его фуфлоеды 1488.gif

Не фуфлыжней твоего задротского декрепид биртха.
(2) Andrew, maxmagmas,
Nov 8 2018, 13:45:49 VTTA - Там? Где! (2018)
ЦИТАТА(Daale @ Nov 8 2018, 13:33:37) *
Меж делом, подъехало оформление физ.копий

А, вон они на что намекали. Шикарно исполнено, ничего не скажешь.
(3) Ghostb, mondblut, vosmidesijatye,
Nov 8 2018, 12:35:19 Muse - Simulation Theory (2018)
Приятные мелодии, узнаваемый почерк, почти нет галимого экспериментаторства. Такой Muse нам нужен.
(2) Nattfodd, vosmidesijatye,
Nov 8 2018, 08:25:35 VTTA - Там? Где! (2018)
ЦИТАТА(Aresson @ Nov 7 2018, 19:58:18) *
облога - шедевр

Ага, Джирарди нервно курит crazy.gif
Музло вот только подкачало - бессмысленный и беспощадный наркоманский бред.
(1) sethurius,
Nov 7 2018, 20:14:47 Лучший альбом 2017 года в стиле Death Metal
Firespawn - The Reprobate - 3
Cytotoxin - Gammageddon - 2
(2) neoatheist, Thrashman,
Nov 5 2018, 08:00:14 Лучший альбом 2017 года в стиле Death Metal
Cytotoxin - Gammageddon
Firespawn - The Reprobate

(1) Thrashman,
Oct 30 2018, 05:13:28 Proch - Trupi Synod (2018)
Блэчок может и задорный, но бестолковый какой-то. Мне не зашло.
(1) garmonbozia,
Oct 29 2018, 13:05:15 Лучший альбом 2017 года в стиле Death Metal
ЦИТАТА(Alexis The Best @ Oct 29 2018, 08:56:23) *
и это радует... а что из моего пройдёт?

Надеюсь ничего. 1488.gif
(1) vosmidesijatye,
Oct 27 2018, 12:46:28 Leonov - Wake (2018)
ЦИТАТА(Glioma @ Oct 27 2018, 09:33:10) *
Из Норвегии группа под названием Leonov??? При этом в составе ни одного Леонова. Что тогда значит слово Leonov по норвежски?

Слово Leonov по норвежски значит "первый человек в открытом космосе"
(6) Deze, mirotvorets, Old Vyaine, Razorbladeswaltz, SatanicPanzer, Vardlokkur,
Oct 27 2018, 06:59:58 Lucifericon - Al-Khem-Me (2018)
Ничего не екало.
Альбом великолепен.
(1) nsk2008,
Oct 27 2018, 06:26:41 Krukh - Безглуздість! (2018)
ЦИТАТА
*Страна: United States

Бизвиз работает! 1488.gif
(3) Nattfodd, Paatddal, Shadechaser,
Oct 26 2018, 06:11:17 Licho - Pogrzeb W Karczmie (2014)
Этот альбом - живое свидетельство того, что для создания шедевра достаточно самых минимальных средств. Меланхоличные треньканья, безумный вокал, не менее безумная (уверен в этом) лирика... И разумеется талант.
(1) smes,
Oct 25 2018, 09:52:08 Ваши любимые Death Metal альбомы современности...
Стремительный (как домкрат) съезд на ж0пе детектед.
(2) Deze, maxmagmas,
Oct 25 2018, 06:48:16 Ваши любимые Death Metal альбомы современности...
ЦИТАТА(Alexis The Best @ Oct 25 2018, 06:05:13) *
1488.gif 14.gif 15.gif
оказывается Каннибалы копируют болтов t1518.gif

Ага, и Джангл Рот с Грейвом. crazy.gif
Интересно, каким органом 80-й пырит музыку?
(1) Alexis The Best,
Oct 24 2018, 07:03:36 Ваши любимые Death Metal альбомы современности... (1) Penetralia,
Oct 23 2018, 13:22:31 Ваши любимые Death Metal альбомы современности... (1) lafuma,
Oct 23 2018, 12:05:07 Kognitiv Tod - Überlagerung (2018)


*Artist: Kognitiv Tod
*Album: Überlagerung
*Year: 2018
*Genre: Dark Ambient/Experimental
*Country: United States
*Format: mp3@CBR320kbps
*Size: 103MB

Tracklist:
1. Edifice 05:13
2. Neu 05:12
3. Infinite Potentialities 03:16
4. Physiognomies 04:18
5. Neohumans 03:32
6. Impulse and Chaos 03:56
7. An Octopus Alone in the Deep 04:39
8. A Brothel in Missouri 04:20
9. Plasma Glistens in Moonlight 05:20
10. Abyssal Chasms Hold Knowledge 05:12
******************************
Total playing time: 44:58



[more=Technical info]
Input File: 03 Infinite Potentialities.mp3
Channels : 2
Sample Rate : 44100
Precision : 16-bit
Duration : 00:03:16.25 = 8654405 samples = 14718.4 CDDA sectors
File Size : 7.85M
Bit Rate : 320k
Sample Encoding: MPEG audio (layer I, II or III)
Comments :
Title=Infinite Potentialities
Artist=Kognitiv Tod
Album=Überlagerung
Tracknumber=3
Year=2018
Genre=black

[/more]

Register
(2) metala, VALERY,
Oct 22 2018, 07:02:54 Удачное клонирование
ЦИТАТА(Andrew @ Oct 22 2018, 06:04:27) *
Кстати, на счет удачных и качественных клонов группы Death.
Как по мне американцы Gruesome - один из самых удачных и качественных клонов.

Есть еще Undead Prophecies, зачетно воршипят ранних Death.
А вообще у Язвы была целая тема про последователей Шульдинера.
(1) Tarelka,
Oct 18 2018, 14:14:41 Doden Grotte - Old World Is Dead (2018)


*Artist: Doden Grotte
*Album: Old World Is Dead
*Year: 2018
*Genre: Black Metal
*Country: Russian Federation
*Format: mp3@CBR320kbps
*Size: 99MB

Tracklist:
1. Intro (Ceremonia Ov VVorship A Great War)
2. Sturmpanzerwagen
3. Against The Law Of God And Human Beings
4. Wind Of Ypres
5. Verdun
6. Ossowitz
7. Opus (About Who Going To War)
8. Bayonet Death Carrier
9. Der Rote Baron
******************************
Total playing time: 41:46



[more=Technical info]
Input File: 01 Intro (Ceremonia ov VVorship a Great War).mp3
Channels : 2
Sample Rate : 44100
Precision : 16-bit
Duration : 00:01:53.56 = 5008128 samples = 8517.22 CDDA sectors
File Size : 4.55M
Bit Rate : 320k
Sample Encoding: MPEG audio (layer I, II or III)
Comments :
Title=Intro (Ceremonia ov VVorship a Great War)
Artist=Doden Grotte
Album=Old VVorld Is Dead
Tracknumber=1
Year=2018
Genre=138

[/more]

Register
(11) 1968_janeart, kim666, legion01, nsk2008, Occultas, Ostinato, Rosen, serach, SilentNidhogg, VALERY, vasiljev_sergej,
Oct 16 2018, 08:02:38 Akitsa - Credo (2018)
Недо-депра, недо-raw. Восторги непонятны.
(1) garmonbozia,
Oct 12 2018, 11:03:51 Terrorizer - Caustic Attack (2018)
Все мимо, как на подбор. Собственно, как и то, что исполняет Rawrorr.
(1) Dmitry1977,

37 Pages V   1 2 3 > » 
- Lo-Fi Version Support form
Copyrights and abuse reports form
Time is now: 18th November 2018 - 16:05:02