Welcome Guest ( Log In | Register )

История благодарностей участнику judaz ::: Спасибо сказали: 2771 раз(а)
Дата поста: В теме: За сообщение: Спасибо сказали:
Yesterday, 07:09:40 Новости Death Metal направления
Antropomorphia "Merciless Savagery" - 05.04.2019 - Metal Blade Records

1. Merciless Savagery
2. Requiem Diabolica
3. Womb ov Thorns
4. Cathedral ov Tombs
5. Apocalyptic Scourge
6. Wailing Chorus ov the Damned
7. Luciferian Tempest
8. The Darkest Light
9. Unsettling Voices

[attachment=9019:antropomorphia2019.jpg]
(2) Nerevar, Occultas,
Feb 11 2019, 07:08:39 Новости Black-направления
Свершилось!

(2) Alexis The Best, Occultas,
Feb 9 2019, 19:59:34 Blue Hummingbird On The Left - Atl Tlachinolli (2019)
Просто отлично.
(2) Alexis The Best, sethurius,
Feb 8 2019, 12:24:47 Игра: отгадай группу по картинке
White Zombie
(1) Anger,
Feb 8 2019, 10:50:19 Игра: отгадай группу по картинке
Чудо-женщина -> Галь -> Gaahl -> Gorgoroth
(1) Old Vyaine,
Feb 8 2019, 08:25:32 Новости Black-направления
Cirith Gorgor "Sovereign" - 26.04.2019 - Label: Hammerheart Records

01. Funeral March For Modern Man
02. Hellbound
03. Sovereign
04. Luciferian Deathsquad
05. Deathcult
06. Legio Luporum
07. Dominion
08. Manifestation Of Evil
09. Blood And Iron

[attachment=8997:cirith_gorgor.jpg]
(3) DarkHorde, Occultas, Razorbladeswaltz,
Feb 7 2019, 19:20:50 Our Survival Depends On Us - Melting The Ice In The Hearts Of Men (2019)
Блэкенеда тоже не услышал, а так неплохой думец.
(2) satanist666, ShadowHunter,
Feb 4 2019, 10:09:22 Astronoid - Astronoid (2019)
Где-то к середине альбома стал дико раздражать пид0рский вокал. Не годится даже для фона.
(1) MeatWolf,
Feb 4 2019, 08:27:17 Nihilism - Obscurite Noir (2019)
В лоу-битрейтной теме уже высказывался, повторюсь:
ЦИТАТА
Прекрасные мелодии, аскетичный вокал, какая-то своеобразная, тревожная атмосфера - все это очень напоминает канувший в лету Blodsband. Великолепный альбом, топовый.
(1) swed,
Feb 3 2019, 09:46:56 Blackdeath - Phantasmhassgorie (2019)
Это какая-то херня, а не Blackdeath. Сильно разочарован.
(1) garmonbozia,
Feb 1 2019, 07:21:33 Nuclear Cthulhu - Desecration (2016)


*Artist: Nuclear Cthulhu
*Album: Desecration
*Year: 2016
*Genre: Black Metal
*Country: Russian Federation
*Format: mp3@CBR320kbps
*Size: 101MB

Tracklist:
1. Desecration I (The Great One)
2. Transmission From The Plateau Of Leng I
3. Desecration II (Shub-Niggurath)
4. Transmission From The Plateau Of Leng II
5. Desecration III (Dream Of Cthulhu / Awakening Of Cthulhu)
6. Transmission From The Plateau Of Leng III
7. Desecration IV (Nuclear Cthulhu)
8. Transmission From The Plateau Of Leng IV
9. Desecration V (March Of Shoggoths)
10. Transmission From The Plateau Of Leng V
11. Desecration VI (R'lyeh's Requiem)
******************************
Total playing time: 45:46



[more=Technical info]
Input File: 02. Transmission From The Plateau Of Leng I.mp3
Channels : 2
Sample Rate : 44100
Precision : 16-bit
Duration : 00:01:02.44 = 2753428 samples = 4682.7 CDDA sectors
File Size : 2.50M
Bit Rate : 321k
Sample Encoding: MPEG audio (layer I, II or III)
Comments :
Title=Transmission From The Plateau Of Leng I
Artist=Nuclear Cthulhu
Album=Desecration
Tracknumber=02
Year=2016
Genre=Blackened Doom / Stoner Metal

[/more]

Register
(17) 1968_janeart, artscald, Boozer, Hell_Is_Here, kim666, Olethros, Ostinato, Razorbladeswaltz, Rosen, satanist666, sethurius, SilentNidhogg, VALERY, vasiljev_sergej, Velmi, Wail, Абигор,
Jan 30 2019, 16:22:16 Humiliation - Regiment (2018)
Послушал этот Humiliation (в ущерб куче непрослушанного свежака!), ну да, болтоворшип как он есть, респект им за это и все такое. Ну а дальше то что? Все, что можно было сыграть в подобной стилистике, давно сыграли сами Болты, причем сыграли гораздо качественней. Те же Мемориам, пусть и за счет облегчения звука, смогли внести в болт-стайл свежую струю. А эти долбят и долбят по проверенным лекалам...
Вокалера бы им нормального, глядишь и получилось бы что-нить более толковое.
(1) Deze,
Jan 28 2019, 08:04:41 Варг Викернес закрывает BURZUM
ЦИТАТА(vosmidesijatye @ Jan 27 2019, 22:34:42) *
А где твои черные музыкальные творения?

Вероятно, изданы в виде кассетной демки в одном экземпляре (вручную пронумерованном).
(1) SSWolf88,
Jan 25 2019, 17:05:31 Ulvdalir - .​.​.​of Death Eternal (2019)
Адская лажа.
(1) tireheb,
Jan 19 2019, 13:12:29 Malevolent Creation - The 13Th Beast (2019)
Обложка как обложка, не лучше и не хуже среднего уровня.
(1) neoatheist,
Jan 18 2019, 22:16:59 Malevolent Creation - The 13Th Beast (2019)
Думал, будет унылое сухо[мат->бан]ево в духе прошлогоднего Monstrosity, но нет, эти старики еще способны жгнуть.
(1) neoatheist,
Jan 15 2019, 04:27:51 Сатурналии (Антипопсовая голосовалка) Часть 9 - 2012-2014, тур 1
ЦИТАТА(Tular @ Jan 14 2019, 22:34:08) *
Я совсем тупой, или Вяйне, у которого в лексиконе "не нужен" — один из самых любимых оборотов, вдруг стал против повсеместного и повторяющегося выплескивания негатива?

"Повсеместного" лишнее слово. На всякую хрень, которая нравится Вяйне, рот раскрывать не моги.
(1) Siberian,
Jan 10 2019, 17:40:51 Death - Leprosy (1988)
ЦИТАТА(Фо @ Jan 10 2019, 16:43:17) *
Если тебе не нравится Аутопси, то ты тоже к дет-металу не имеешь никакого отношения.

А кто имеет отношение к дет-металу? Уж не ты ли со своей никчемной групешкой?
(1) Thrashman,
Jan 7 2019, 19:56:57 Membrance - Morality's Colapse (2019)
Прекрасный альбом.
Проговых элементов столько, что впору прог указывать в тегах. А последние два трека вообще какой-то авангард.
(1) Samaritianin,
Jan 3 2019, 11:10:16 лучшие Death Metal альбомы 2018
Подводить итоги 2018 года как никогда просто. У меня давно нарисовались два безоговорочных фаворита, на фоне которых остальные претенденты представляют собой однородную, не слишком вразумительную массу, выделять из которой 10, 15 или 20 мест не только бессмысленно, но еще и хлопотно. Поэтому просто ограничусь их перечислением.

Итак, фавориты:

Lividity - Perverseverance (2018) (США)
Альбом, который меня раздавил и уничтожил. И продолжает давить и уничтожать при каждом переслушивании.

Carthage - Punic War! (2018) (Греция)
Сходные эмоции, хоть и в меньшей степени.

[more="Достойны упоминания:"]Acts Of Swine "Sadistically Speaking" (2018)

All Consumed "Birth Of Ruin" (2018)

Ataraxy "Where All Hope Fades" (2018)

Cancer "Shadow Gripped" (2018)

Corpsessed "Impetus Of Death" (2018)

Dead End Future "Obey" (2018)

Dyingbreed "Under A Black Sun" (2018)

Dysphoria "Foul Ashes Of Deceit" (2018)

Gruesome "Twisted Prayers" (2018)

Gulag "Subservient Consanguinity" (2018)

Inner Decay "Souls Of War" (2018)

Jungle Rot "Jungle Rot" (2018)

Lucifericon "Al​-​Khem​-​Me" (2018)

Memoriam "The Silent Vigil" (2018)

Mortuous "Through Wilderness" (2018)

Rotheads "Sewer Fiends" (2018)

Stranguliatorius "Rope, Soap, Tabouret" (2018)

Sulphur Aeon "The Scythe Of Cosmic Chaos" (2018)

Symbolical "Allegory Of Death" (2018)

Terrorizer "Caustic Attack" (2018)

The Monolith Deathcult "V2 - Vergelding" (2018)

The Occult "Necropolis" (2018)

Vomitile "Pure Eternal Hate" (2018)

Weak Aside "Forward Into Darkness" (2018)

Zealot Cult "Spiritual Sickness" (2018)
[/more]
(1) Thrashman,
Jan 3 2019, 10:37:16 Monstrosity - The Passage Of Existence (2018)
Дал альбому целых три шанса, с перерывом в несколько месяцев каждый. Но нет, чуда не случилось. Остаюсь при своем первоначальном мнении - слушать сабж категорически неинтересно.
(1) sperminator,
Jan 3 2019, 07:51:08 Meathook - Crypts, Coffins, Corpses (2019)
После четвертого (заглавного) трека становится окончательно понятно, что ждать чего-то интересного от альбома не приходится.
Ну брутал и брутал... Может чуть повыше среднего уровня.
Разок прогнать под настроение и забыть навсегда.
(1) sperminator,
Dec 29 2018, 06:56:21 Demon Goat - Anathematized [ep] (2018)


*Artist: Demon Goat
*Album: Anathematized [ep]
*Year: 2018
*Genre: Black/Doom Metal
*Country: United States
*Format: mp3@CBR320kbps
*Size: 63MB

Tracklist:
1. Upon an Endless Curve in a Bottomless Chasm 06:23
2. Drifting in Fogs on Waters of Hell 06:18
3. What is Done is but Blood 07:31
4. Rejecting the Light of Christ 07:03
******************************
Total playing time: 27:15



[more=Technical info]
Input File: 01 Upon an Endless Curve in a Bottomless Chasm.mp3
Channels : 2
Sample Rate : 44100
Precision : 16-bit
Duration : 00:06:23.45 = 16910101 samples = 28758.7 CDDA sectors
File Size : 15.4M
Bit Rate : 322k
Sample Encoding: MPEG audio (layer I, II or III)
Comments :
Title=Upon an Endless Curve in a Bottomless Chasm
Artist=Demon Goat
Album=Anathematized
Tracknumber=1
Year=2018

[/more]

Register
(10) 1968_janeart, artscald, Doooomed, marilin, Ostinato, Rosen, SilentNidhogg, stub888, VALERY, vasiljev_sergej,
Dec 28 2018, 05:24:46 Phlebotomized - Deformation Of Humanity (2019)
ЦИТАТА(vosmidesijatye @ Dec 27 2018, 23:11:58) *
Ну мне вот не понравилось. В этом я вижу (не претендуя на то, чем ты пытался меня наделить) ничего. Определенная выразительность конечно есть - изображение человека сделано намеренно просто, но с акцентом на определенные части лица. Напоинает японские фильмы ужасов, постеры к ним. За этим видно владение приемами рисования и т.д. но при этом нет здесь яркой самобытности, того, что можно назвать искуссством (на мой взгляд). Подобное не врезается в память как 9 вал Айвазовского, картины Босха или Дали того же. Конечно, незачем к обложке какой то там мятал группы рисовать на уровне гениев но можно было бы и обойтись чуть более интересным решением. Хотя конечно это воля музыкантов, им решать. Но вот даже чел который рисовал последние Соулфлай, Бладбас, Роттин Крайст грядущий , хейт итернал - это ИНТЕРЕСНО. Присутсвует сюжет, виден труд, видно шо вырисовывалось, подбиралась цветовая гаммма и т.д. Пусть это будет конвеерно, но это мини-революция. А это? Таких обложек было до них 100500 и будет .

Хорош пургу нести, эстет. Уровень твоего "вкуса" это убогие обложки начинающих дэтстеров, которые вообще никакой ценности не представляют.
(3) 6666666, Alexis The Best, Synthaeon,
Dec 21 2018, 10:17:50 Phlebotomized - Deformation Of Humanity (2019)
Беру весь свой скепсис обратно - альбом шикарный. Первый кандидат в топ 2019 года.
(1) Ghostb,

39 Pages V   1 2 3 > » 
- Lo-Fi Version Support form
Copyrights and abuse reports form
Time is now: 20th February 2019 - 13:23:39