Welcome Guest ( Log In | Register )

История благодарностей участнику judaz ::: Спасибо сказали: 3179 раз(а)
Дата поста: В теме: За сообщение: Спасибо сказали:
Nov 10 2019, 19:39:14 Hour Of Penance - Misotheism (2019)
Прям хорошо так зашло. Под настроение чтоль попало?
Даже переслушивать не хочется, дабы не расплескать послевкусие.
(1) Chasm,
Nov 1 2019, 21:28:18 Kvasir's Blood - Triumph Of The Will (2019)
Порожняк.
(1) garmonbozia,
Nov 1 2019, 07:13:04 Sardonic Wrath - Lacrimae Macabre (2019)
Недоразумение какое-то.
(2) krotovich, Shadechaser,
Nov 1 2019, 06:37:31 Sarke - Gastwerso (2019)
Согласен с предыдущим оратором.
Группа, которая вроде бы скатилась в болото самоповторов и самоплагиата, внезапно выдает топовый альбом. А всего-то стоило добавить чуток клавиш.
Ноктурно Культо как всегда шикарен.
(1) garmonbozia,
Oct 24 2019, 19:48:26 Mayhem - Daemon (2019)
Видимо предполагалось, что новый альбом живых легенд следует ВНИМАТЬ со священным трепетом, хотя по факту здесь материал максимум тянет на "ну неплохо".
Дослушал с трудом, переслушивать не буду.
(5) Forrrrest, garmonbozia, infiltrator, mirotvorets, Shadowman,
Oct 24 2019, 19:12:23 Havohej - Table Of Uncreation (2019)
Маловразумительное и маломузыкальное нечто.
(1) Old Vyaine,
Oct 24 2019, 15:45:14 Golgotha - Erasing The Past (2019)
Честно прослушал 5 треков и не понял из-за чего сыр-бор. Вот из-за этого непритязательного готег/думчика, которого до отрыжки накушались в 90-х? Не спорю, тогда он кому-то вполне мог вкатить, но сейчас это блюдо слишком пресное, даже поданное под соусом олдскула и щедро приправленное ностальгией.
З.Ы. Насчет альбома года - лучшая шутка дня.
(7) Beazth, crestfallen999, Ghostb, infiltrator, Old Vyaine, plfan93, sidJoy,
Oct 22 2019, 14:03:52 Логос - Что Наша Жизнь? (2019)
ЦИТАТА(Фо @ Oct 22 2019, 13:32:17) *
А раз проект напомнил мне сразу о двух хороших вещах, то, прок от него, какой то, безусловно, есть.

О трех! Обложка напоминает скриншот из Age of Empires.
(5) Deze, Ghostb, infiltrator, plfan93, Фо,
Oct 22 2019, 10:21:09 [Amatory] - Doom (2019)
Сабж не слушал и не собираюсь, а по поводу Ленинграда скажу, что очень рад, что Шнур наконец-то распустил свою шарагу.
(1) plfan93,
Oct 22 2019, 08:28:31 Teitanblood - The Baneful Choir (2019)
Небезынтересно первые пол-альбома. Потом надоедает. Стабильность признак класса, короче.
(2) Ghostb, infiltrator,
Oct 21 2019, 18:00:19 Unaussprechlichen Kulten - Teufelsbücher (2019)
Атмосферно, качественно, но не мое.
(1) FlammenTod666,
Oct 18 2019, 21:27:29 Djevel - Ormer Til Armer, Maane Til Hode (2019)
Графоманы от блэк метала.
(2) garmonbozia, infiltrator,
Oct 18 2019, 13:18:26 1349 - The Infernal Pathway (2019)
ЦИТАТА(verner @ Oct 18 2019, 12:52:21) *
Пришла в голову мысль, что было бы здорово, если бы юзерЪ писал пост/отзыв в двух частях.
1. Что ждет (причем, в идеале, до прослушки);
2. Что услышал.
А то все эти претензии: "исписались, опопсели, звук- гавно, самоповторы", либо эта любимая бусинка- "ждал чего-то другого, а тут..." звучат как-то ниочем, как гугл- координаты тридевятого царства. 1488.gif

1. Ждал чего-то в духе альбома 2014 год.
2. Услышал что-то не в духе альбома 2014 года.
1488.gif
(3) Dantalian, infiltrator, plfan93,
Oct 18 2019, 10:12:53 1349 - The Infernal Pathway (2019)
Что-то вообще никак.
(1) Brann,
Oct 13 2019, 12:18:14 Profanatica - Rotting Incarnation Of God (2019)
ЦИТАТА(asog @ Oct 10 2019, 21:38:26) *
А не знай, никогда не нравилось их творчество. Это творение не исключение - примитивно, топорно. Соляков нет. Не моё.

Но при этом дико и убойно. Отличный альбом.
(2) infiltrator, sethurius,
Oct 11 2019, 10:34:42 Лучший советчик МА - Часть 1 (Дэт) - Итоги
Почему Пюре? ПЫРЕ же. От слова "пырить".
(1) vosmidesijatye,
Oct 10 2019, 14:07:15 Entrails - Rise Of The Reaper (2019)
Облога кошмар и ужас, детский сад "Ромашка".
(4) Brann, Deze, infiltrator, vosmidesijatye,
Oct 10 2019, 07:31:36 Aegrus - In Manus Satanas (2019)


*Artist: Aegrus
*Album: In Manus Satanas
*Year: 2019
*Genre: Black Metal
*Country: Finland
*Format: mp3@CBR320kbps
*Size: 99MB

Tracklist:
01. Hymn To The Firewinged One 05:46
02. Nightspirit Theosis 03:40
03. Gestalt Of Perdition 05:49
04. At The Altar Of Twilight 00:52
05. Ascending Shadows 07:04
06. Nemesis 07:09
07. The Black Wings Upon Me 05:30
08. In Manus Satanas 08:38
******************************
Total playing time: 44:28



[more=Technical info]
Input File: 04. At The Altar Of Twilight.mp3
Channels : 2
Sample Rate : 44100
Precision : 16-bit
Duration : 00:00:51.99 = 2292803 samples = 3899.32 CDDA sectors
File Size : 2.24M
Bit Rate : 344k
Sample Encoding: MPEG audio (layer I, II or III)
Comments :
Title=At The Altar Of Twilight
Artist=Aegrus
Album=In Manus Satanas
Tracknumber=4
Year=2019
Genre=Black Metal

[/more]

Register

Register
(29) 1968_janeart, alikkon, andivi, cist, dermarsoran, FlammenTod666, Frozenkult, Hell_Is_Here, Ildjarn, infernallord, kim666, Lamby90, LEGION69, Morgoth, rickzammuto, rimfrost, robertho777, Rosen, Rover, RUDACHUR, sabr, stub888, Taragorm, thenecromancer, VALERY, vasiljev_sergej, Vidder242, vov7609, vovenom,
Oct 7 2019, 19:17:09 Exulansis - Sequestered Sympathy (2019)
Отличный альбом, в чем на 75 процентов заслуга скрипки. Без нее был бы симпатичный, но совершенно безликий атмоблэк.
(1) Baarin,
Oct 7 2019, 08:45:26 Kull - Exile (2019)
ЦИТАТА(Kazoth @ Oct 6 2019, 11:44:29) *
Ну по музыке то один к одному.

ЦИТАТА
Нет, это как раз 100 процентов Бал-Сагота. Потому что братья Модлинги, создавшие сабж, и были сонграйтерами БС. Байрон только за тексты и "общую концепцию" отвечал.

Где вы тут "один к одному" и "100 процентов" углядели? Абсолютно беспомощная поделка.
(1) raattent,
Sep 26 2019, 19:01:09 Azels Mountain - Wieczny Sen (2019)
Проходняк.
(1) Krosis,
Sep 26 2019, 06:26:31 Batyushka - Апостол (2019)
[youtube]IMXtgTa-F20[/youtube]
(10) Deze, Ghostb, infiltrator, ironman2002, NecroButcher, plfan93, recber, RUSP73, russ777, TDM,
Sep 18 2019, 21:54:14 Asagraum - Dawn Of Infinite Fire (2019)
Альбом из числа тех, к которым и придраться не к чему, и переслушивать не тянет.
(2) garmonbozia, Kazoth,
Sep 11 2019, 06:45:50 Новости Black-направления
Sarke - Gastwerso (01.11.2019)

(4) DarkHorde, infiltrator, RUDACHUR, technoboy69,
Sep 8 2019, 14:55:13 Alcoholocaust - Necro Apocalipse Bestial (2019)
Ну на концерте под такое можно поколбаситься. А так... Всегда считал спид/треш одним из скучнейших направлений в музыке. Сабжевый альбом только укрепил меня в своем мнении, даже не смотря на наличие блэковых элементов.
(2) BERZERK, FlammenTod666,

44 Pages V   1 2 3 > » 
- Lo-Fi Version Support form
Copyrights and abuse reports form
Time is now: 12th November 2019 - 02:39:17