Welcome Guest ( Log In | Register )

История благодарностей участнику judaz ::: Спасибо сказали: 2536 раз(а)
Дата поста: В теме: За сообщение: Спасибо сказали:
Sep 16 2018, 16:35:11 Grupa Krovi - Zona (2017)
Цой жив!
(3) Aynekko, nsk2008, Shadowman,
Sep 16 2018, 12:23:25 Lesa Humanidad - Hegemonia Perversa (2018)
А мне превью напомнило финнов Amputory. Однозначно надо брать.
(1) Leshiy666,
Sep 16 2018, 10:30:21 Deicide - Overtures Of Blasphemy (2018)
ЦИТАТА(FullofHate @ Sep 16 2018, 10:26:39) *
Но-но, Scars Of The Crucifix решает!

Да ни хера он не решает, недавно только переслушивал, лажа второсортная.
(2) neoatheist, Shadowman,
Sep 14 2018, 10:51:59 Burial Hordes - Θανατος Αιωνιος (The Termination Thesis) (2018)
Альбом вкатил просто жесточайше.
(1) Leshiy666,
Sep 14 2018, 06:28:03 Burial Hordes - Θανατος Αιωνιος (The Termination Thesis) (2018)
Ждал pray.gif
(1) Leshiy666,
Sep 6 2018, 14:13:35 Korpiklaani - Kulkija (2018)
Больше часа финского фолка, застрелиться легче.
(1) Glioma,
Sep 6 2018, 10:00:45 Furze - The Presence... (2018)
Да ну, порожняк
(1) Razorbladeswaltz,
Aug 28 2018, 10:18:02 Сатурналии (Антипопсовая голосовалка) Часть 5 - 2000-2002, тур 1
ЦИТАТА(maxmagmas @ Aug 28 2018, 10:16:25) *
Пока ты не заострил на них внимания, я даже и не думал ни о каком срaче, а теперь вот хз. Это ж фошысты, а у меня дiды воевали.

Это да. Отличную рекламу сделал!
(4) Exorcist, infiltrator, kostja, maxmagmas,
Aug 28 2018, 07:38:43 Thysantmünz - Undead Poetry (2018)
ЦИТАТА(Daale @ Aug 27 2018, 20:06:13) *
А чего, для дебюта звучит довольно неплохо.

Да отлично звучит
(2) Daale, infiltrator,
Aug 28 2018, 04:52:56 Новости Death Metal направления
ЦИТАТА(Dmitry1977 @ Aug 27 2018, 17:21:10) *
Имхо
, но в широких массах они на слуху только из-за состава. Музыкально - шлак и второсорт (про вокал даже и говорить не хочется - но тут может и объективно связкам хана, но музло можно и написать хорошее, ан нет).

Понятно, что не Болт Тровер, но за неимением последних пусть будет хотя бы такое. Мне норм заходит.
(1) older68,
Aug 27 2018, 14:13:11 Новости Death Metal направления
ЦИТАТА(Dmitry1977 @ Aug 26 2018, 16:52:21) *
Memoriam закроют, и это отлично!

Не вижу ничего отличного
(1) Chasm,
Aug 27 2018, 11:05:27 Nachtlieder - Lynx (2018)
Нетривиальный материал нарулила тетка.
(1) garmonbozia,
Aug 22 2018, 08:23:09 Kvele - Long May They Haunt Us (2018)


*Artist: Kvele
*Album: Long May They Haunt Us
*Year: 2018
*Genre: Black Metal
*Country: Greece
*Format: mp3@CBR320kbps
*Size: 77MB

Tracklist:
1. Innocent Blood
2. Horns Up
3. The Fourth Cross
4. Morbid Prayer
5. ...of Murder
6. Long May They Haunt Us
7. The Things That Make You Human
******************************
Total playing time: 34:13

[more=Technical info]
Input File: 01 Innocent Blood.mp3
Channels : 2
Sample Rate : 44100
Precision : 16-bit
Duration : 00:03:56.51 = 10430003 samples = 17738.1 CDDA sectors
File Size : 9.46M
Bit Rate : 320k
Sample Encoding: MPEG audio (layer I, II or III)
Comments :
Title=Innocent Blood
Artist=Kvele
Album=Long May They Haunt Us
Tracknumber=1
Genre=138

[/more]

Register
(10) 1968_janeart, andivi, infiltrator, kim666, Korpse, rammmirez, Rosen, varg-38ru, vasiljev_sergej, vov7609,
Aug 21 2018, 11:07:50 Viha Surma - The Tower Of Witchcraft (2016)
Крутейшая вещь.
(2) celt1066, infiltrator,
Aug 20 2018, 14:59:48 Сатурналии (Антипопсовая голосовалка) Часть 5 - 2000-2002, тур 1
Добавил Darkened Nocturn Slaughtercult - Follow The Calls For Battle
(4) Deze, infiltrator, neoatheist, Penetralia,
Aug 20 2018, 12:57:26 Cathedral Of Light - Unity [ep] (2018)


*Artist: Cathedral Of Light
*Album: Unity [ep]
*Year: 2018
*Genre: Black Metal
*Country: Australia
*Format: mp3@CBR320kbps
*Size: 32MB

Tracklist:
1. The Seer, Pt. 2 03:08
2. Saved 03:16
3. The Wishing 03:55
4. Deus Ex Machina 01:17
5. Interlude 01:30
******************************
Total playing time: 13:06



[more=Technical info]
Input File: 05 Interlude.mp3
Channels : 2
Sample Rate : 44100
Precision : 16-bit
Duration : 00:01:30.55 = 3993035 samples = 6790.88 CDDA sectors
File Size : 3.79M
Bit Rate : 335k
Sample Encoding: MPEG audio (layer I, II or III)
Comments :
Title=Interlude
Artist=Cathedral Of Light
Album=Unity
Tracknumber=5
Year=2018

[/more]

Register
(5) 1968_janeart, kim666, Rosen, stub888, vasiljev_sergej,
Aug 20 2018, 11:36:46 Viha Surma - As Above So Below [demo] (2018)


*Artist: Viha Surma
*Album: As Above So Below [demo]
*Year: 2018
*Genre: Black Metal
*Country: Mexico
*Format: mp3@CBR192kbps
*Size: 56MB

Tracklist:
1. ...To The Inner Infinity
2. Cosmological Letdown
3. Status: Cursed
4. Omega Rising
5. Astral Traveler
******************************
Total playing time: 41:11



[more=Extended info]Label: Depressive Illusions Records
Format: Cassette
Limitation: 66 copies[/more]

[more=Technical info]
Input File: 04 Omega Rising.mp3
Channels : 2
Sample Rate : 44100
Precision : 16-bit
Duration : 00:00:40.93 = 1804925 samples = 3069.6 CDDA sectors
File Size : 982k
Bit Rate : 192k
Sample Encoding: MPEG audio (layer I, II or III)
Comments :
Title=Omega Rising
Artist=Viha Surma
Album=As Above So Below
Tracknumber=4/5
Year=2018
Genre=138

[/more]

Register
(6) 1968_janeart, Alexis The Best, kim666, Korpse, thenecromancer, vasiljev_sergej,
Aug 14 2018, 12:59:01 Insanis - Dawn Ov The Black Sun (2018)
ЦИТАТА(asog @ Aug 14 2018, 12:45:43) *
Патамушто они TRVE! FVCK THE POZERZ!

Тогда не THE, а DA. gop_spb.gif
(2) neoatheist, PerYngveOhlin,
Jul 31 2018, 10:28:51 Irony Of Fate - Pray For Freedom... Prepare For Extinction (2018)
Irony Of Fate, or With Good Steam
(4) infiltrator, Thiarnan, Tular, vosmidesijatye,
Jul 21 2018, 13:16:13 Those Who Bring The Torture - Pain Offerings (2018)
Согласен, проект скатился в безликую серость.
(2) infiltrator, nunim,
Jul 17 2018, 06:49:36 Сатурналии (Антипопсовая голосовалка) Часть 4 - 1997-1999, тур 1
...and Oceans - The Dynamic Gallery of Thoughts
...and Oceans - The Symmetry Of I, The Circle Of O
Bethzaida - LXXVIII
Betray My Secrets - Betray My Secrets
Dismal Euphony - All Little Devils
Dismal Euphony - Autumn Leaves - The Rebellion of Tides
Legenda ‎– Autumnal
Mithotyn ‎– King Of The Distant Forest
Mithotyn ‎– Gathered Around The Oaken Table
Necrophagia - Holocausto De La Morte
Rossomahaar - Imperium Tenebrarum
Tulus - Evil 1999
Темнозорь ‎– Ведовством Крепка Чёрная Слава Руси
(2) dimasus82, infiltrator,
Jul 2 2018, 10:22:13 Immortal - Northern Chaos Gods (2018)
Хороший альбом, явно удачнее и 2009 и аббатовского сольника.
(1) troll_swamp,
Jun 29 2018, 11:48:06 Slidhr - The Futile Fires Of Man (2018)
Шляпа невнятная, еле дослушал.
(2) garmonbozia, Premature_Devotion,
Jun 29 2018, 10:56:35 Shylmagoghnar - Transience (2018)
Шикарная вещь, как и дебютник.
Если честно, не верил, что они смогут удержать планку.
(2) infiltrator, Lord_Hip,
Jun 27 2018, 10:07:38 Ectoplasma - Cavern Of Foul Unbeings (2018)
ЦИТАТА(vosmidesijatye @ Jun 27 2018, 09:59:44) *
Пффф, ааххахахаха. 1488.gif Такие обложки уже сами по себе - немаловажная часть дэт-металла как стиля. Смотришь - сразу понимаешь, что за стиль и примерно какого плана музло будет внутри. Подобные арты нередко встречаются и у культовых групп.

От этого они не перестают быть говном.
(1) sarcophagus,

35 Pages V   1 2 3 > » 
- Lo-Fi Version Support form
Copyrights and abuse reports form
Time is now: 24th September 2018 - 05:49:38