Welcome Guest ( Log In | Register )

История благодарностей участнику Thrasher1986 ::: Спасибо сказали: 373 раз(а)
Дата поста: В теме: За сообщение: Спасибо сказали:
Jan 22 2015, 14:38:02 Death Power - Keep Fit, Fuck More... [demo] (1988)
Register
(3) fuoco, Genuine Thrashiac, wgs73,
Jun 14 2014, 17:11:41 Suckspeed - Slow Motion (1991)
ЦИТАТА(FuckinSuicidal @ Jun 2 2013, 20:01:06) *
Перезалейте плиз!


Зеркала (Ссылки не мои)
Register
(1) kim666,
Jun 1 2014, 14:25:45 BSxBC - Battape [demo] (2014)


*Artist: BSxBC
*Album: Battape [demo]
*Year: 2014
*Genre: Thrash Metal/Hardcore
*Country: Ukraine
*Format: mp3@CBR320kbps
*Size: 66MB

Tracklist:
1. Kobra Khan
2. Motivation
3. Cross Imputation
4. Store Youth
5. The Shadow Knows
6. Army Of Rats
******************************
Total playing time: 28:28

[more=Extended info]
BSxBC @ vk.com[/more]

[more=Technical info]
Input File: 06 - Army Of Rats.mp3
Channels : 2
Sample Rate : 44100
Precision : 16-bit
Duration : 00:03:34.04 = 9439340 samples = 16053.3 CDDA sectors
File Size : 8.79M
Bit Rate : 328k
Sample Encoding: MPEG audio (layer I, II or III)
Comments :
Title=Army Of Rats
Artist=BSxBC
Album=2014 Battape [Demo]
Tracknumber=06/06
Year=2014
Genre=Crossover Thrash Metal

[/more]

Register
(5) Genuine Thrashiac, killingod, pain, Rosen, varlam4,
May 21 2014, 10:28:46 Carnivore - Subhuman [demo] (1984)

Register
(1) varlam4,
May 21 2014, 10:24:12 Carnivore - Nuclear Warriors [demo] (1986)
Register
(4) Diflock, marilin, thenecromancer, varlam4,
May 21 2014, 10:21:13 Carnivore - Retaliation (1987)
Register
(3) marilin, princeshr, varlam4,
May 21 2014, 10:16:48 Carnivore - Carnivore (1985)
Register
(5) marilin, princeshr, varlam4, Луч, Язва,
May 21 2014, 10:08:03 Solstice - Solstice (1992)
Register
(5) AngelSlayerSoul, crackedbrain, KVRT, muskatnuss, Patrick,
May 21 2014, 10:06:47 Solstice - Pray (1995)
Register
(4) AngelSlayerSoul, KVRT, Mist13Signifier, varlam4,
May 21 2014, 10:00:46 Solstice - Demo 1991 [demo] (1991)
Register
(6) Alfredoelruso, Evilded, muskatnuss, potap03020100, RunningWild_AT, varlam4,
May 21 2014, 09:59:00 Solstice - To Dust (2009)
Register
(6) AngelSlayerSoul, Mist13Signifier, potap03020100, satanstrashcan2, scorn33, SyncestrA,
May 21 2014, 09:24:01 Solstice - Pray For The Sentencing [best of/compilation] (2012)
Register
(4) Mist13Signifier, muskatnuss, Proteus_666, Tino,
Mar 7 2014, 10:25:59 Ringworm - Hammer Of The Witch (2014)
Мощно, жестко, брутально! Один из лучших альбомов. Вокалист особенно доставляет.

Register
(3) CRUNCH, Genuine Thrashiac, varlam4,
Mar 7 2014, 10:24:39 Ringworm - Stigmatas In The Flesh [live] (2012)


Register
(1) DarkHorde,
Mar 7 2014, 10:23:34 Ringworm - Scars (2011)


Register
(6) DarkHorde, latariel, lyukon, Ostinato, Tino, varlam4,
Mar 7 2014, 10:21:25 Ringworm - The Venomous Grand Design (2007)


Register
(3) DarkHorde, latariel, varlam4,
Mar 7 2014, 10:16:48 Ringworm - Justice Replaced By Revenge (2005)


Register
(5) DarkHorde, latariel, lyukon, Tino, varlam4,
Mar 7 2014, 10:13:39 Ringworm - Birth Is Pain (2001)
Register
(4) Alex Eagle, DarkHorde, latariel, lyukon,
Mar 7 2014, 10:10:41 Ringworm - The Promise (1993)
Register
(5) Alex Eagle, DarkHorde, latariel, varlam4, WX419,
Feb 27 2014, 15:32:57 Tribulation - Clown Of Thorns (1991)

Register
(1) CORPSEMIXA,
Feb 20 2014, 07:07:17 Dekapitator - The Storm Before The Calm (2007)


Dekapitator была сформирована ребятами из Exhumed (Мэтт Харви и Кол Джонс).
По словам Мэтта, группа не распалась, они просто не делают шоу на данный момент, но по-прежнему активны.
Местами вокалист, как Макларен из Razor визжит. Альбом термоядерный!
Register
(6) AwaitingDawn, boba, DaRKNeSS666NL, morbidangelo, Tino, wanderer73,
Feb 20 2014, 07:03:41 Blasthrash - No Trace Left Behind (2005)
Register
(3) cuimit1349, Spunkynut, Tino,
Feb 20 2014, 06:59:48 Blasthrash - Violence Just For Fun (2008)

Register
(4) avkruchinin, cuimit1349, THERION, Tino,
Feb 17 2014, 07:07:19 Thrashless - Awaiting Rebirth (2012)
Злые, брутальные Эстноцы. Отличный дебют!

Register
(6) cuimit1349, lafuma, MEmethuselah, samokot, sperminator, wgs73,
Feb 17 2014, 07:05:17 Thrashless - Trip Of Death (2013)
Отличное продолжение прошлой пластинки. \m/

Register
(5) avkruchinin, Darkness, Diflock, MEmethuselah, neoatheist,

4 Pages V   1 2 3 > » 
- Lo-Fi Version Support form
Copyrights and abuse reports form
Time is now: 15th September 2019 - 23:43:32