Welcome Guest ( Log In | Register )

История благодарностей участнику Victim of fate ::: Спасибо сказали: 2206 раз(а)
Дата поста: В теме: За сообщение: Спасибо сказали:
Jan 1 2021, 07:25:58 Existentialist - Prophet Of Ignorance (2020)
для кого написано: blackeneddeathcore ?
или все уже пьяные)))))
(2) AHBAnep, Metalass,
Dec 28 2020, 05:36:09 Postnecrum - De Nocte Vento (2020)
посмотрел превью выступления в холле Газпрома и удалил сразу 5.gif
(1) Metalass,
Dec 26 2020, 19:55:07 Dark Doom - Mourning's End (2020)
ЦИТАТА(Bloodn Lord @ Nov 9 2020, 07:57:02) *
Смотря где слушать, разумеетсяsmile1.gif
На хай энд напольных колонках, согласен, средне.
В хороших наушниках в хорошем плеере - абсолютно нормально.

скажу больше и на компьютерных колонках Creative за 2500 косаря нормально слушать))))
(1) Bloodn Lord,
Dec 25 2020, 05:40:00 Hate Forest - Hour Of The Centaur (2020)
для любителей старой формации -это классика
для новичков- не пойдёт

оставлю как память....
(2) BERZERK, infiltrator,
Dec 24 2020, 17:06:56 Ulvhedner - Legd (2020)
ЦИТАТА(isvili @ Dec 23 2020, 16:40:38) *
По сути это Raw Black Metal

все раушники плачут шишками))))
(1) WOLAND,
Dec 23 2020, 05:19:28 Ulvhedner - Legd (2020)
там фолка 5%
не надо так писать в шапке
ещё и тэгов группы нет crazy.gif
(2) folker, infiltrator,
Dec 17 2020, 17:10:26 Svrm - Занепад (2020)
сразу без слов в ТОП Года!!!!!!!
скажу одно: если бы я написал альбом - вот таким он и должен быть на 95% + запись немного улучшил!
(1) smes,
Dec 12 2020, 07:32:11 Харизма - Делай Рок! (2020)
никогда их не слушал ,а тут по ютубу понравилось
название песен- а у забугорных лучше что ли?
ребятки вы все постарели и простенький хэви для ваших Королевских ушей уже не камильфо)))))))))
(1) Mplast,
Dec 3 2020, 05:12:42 Forelorne - Black November 4 (2020)
третьесорт
The_Hound - мелодику принял за просто мягкое звучание
(2) ent404, isvili,
Nov 28 2020, 20:29:48 Leviathan - Words Waging War (2020)
а как в одной стране могут быть 2 группы без суда?
(2) infiltrator, Kitalter,
Nov 28 2020, 19:52:51 Urfaust - Teufelsgeist (2020)
а где тут блэк?
совсем мозги пропили)))))
(5) Bloodn Lord, ent404, HowlingSpirit, infiltrator, Olrak,
Nov 28 2020, 19:45:29 Meridian Zero - A New Beginning [ep] (2020)


*Artist: Meridian Zero
*Album: A New Beginning [ep]
*Year: 2020
*Genre: Power Metal
*Country: Spain
*Format: mp3@CBR320kbps
*Size: 65MB

Tracklist:
1. Intro 00:46
2. Like A Thunder 04:09
3. Lady Dark 04:00
4. Koma 04:59
5. Outcast 08:24
6. Live And Let Me Die 05:41
******************************
Total playing time: 27:59



[more=Technical info]
Input File: 02 - Like a Thunder.mp3
Channels : 2
Sample Rate : 44100
Precision : 16-bit
Duration : 00:04:09.43 = 11000039 samples = 18707.5 CDDA sectors
File Size : 10.1M
Bit Rate : 325k
Sample Encoding: MPEG audio (layer I, II or III)
Comments :
Title=Like a Thunder
Artist=Meridian Zero
Album=A New Beginning
Tracknumber=2
Year=2020
Discnumber=1/1

[/more]

Register
(12) aviacademy, Herrant, infiltrator, Marek, Mogozoz, Olethros, randumbum, Rosen, sergsazan, wreak, zhol, Сварог Барг,
Nov 24 2020, 06:00:13 Winterfun - Thank My Songs (2020)
писать стёбные песни это отдельный выдающийся вид искусства - а тут просто дно.
(1) Ghostb,
Nov 24 2020, 05:36:48 Nietzu - Auguries Of Evil At The End Of Autumn [ep] (2020)
сентябрьский был фуфлом- а тут он решил нас взять количеством)))
(1) Storky,
Nov 13 2020, 18:52:31 Katorga - Last Transmission (2020)


*Artist: Katorga
*Album: Last Transmission
*Year: 2020
*Genre: Depressive Black Metal
*Country: Poland
*Format: mp3@CBR320kbps
*Size: 77MB

Tracklist:
1-Intro (No Love) 1:40
2-Imaginary Future 3:46
3-Unrealistic Desire (Lullaby) 3:55
4-There Will Be My Smell And Your Tears 0:12
5-Coffin 6:12
6-The Final Pain 4:32
7-Heart Code 1:08
8-Black Thoughts In My Mind (Ver. 2) 5:22
9-Outro (No Loss) 2:51
******************************
Total playing time: 29:38



[more=Technical info]
Input File: 03. Unrealistic Desire (Lullaby).mp3
Channels : 2
Sample Rate : 44100
Precision : 16-bit
Duration : 00:03:54.53 = 10342817 samples = 17589.8 CDDA sectors
File Size : 9.49M
Bit Rate : 324k
Sample Encoding: MPEG audio (layer I, II or III)
Comments :
Title=Unrealistic Desire (Lullaby)
Artist=Katorga
Album=Last Transmission
Tracknumber=03
Year=2020
Genre=Depressive Black Metal

[/more]

Register
(3) INDARKNESS, kim666, varlam4,
Oct 20 2020, 04:56:19 Nouseyesuon - Death Is Nothing To Us (2020)
хочется поехать в бразилию и раздать им там (*****лей)
(1) Andrew,
Oct 14 2020, 05:44:51 Hyperborean Skies - Severances [ep] (2020)
неумолимая красота, Wistful Wanders - заслушался!!!!
(1) Eisbar,
Oct 8 2020, 05:10:24 Framtak - Framtak (2020)
ЦИТАТА(kranger @ Oct 7 2020, 23:21:00) *
Звезд не хватает ,но проматывать можно и нужно.

fear.gif мне словарь не помог понять это)))
(2) infiltrator, zhol,
Oct 6 2020, 04:51:13 Concrete Age - Spirituality (2020)
очередная красотища для ушей!

а для новых слушателей(как fr47) и тд. советую с ранних альбомов начинать к ним проникаться)
(1) StabWound,
Sep 30 2020, 05:41:48 Frozen Dreams - The Eclipse Of Eternity (2020)
каждый раз молодцы
(1) Olrak,
Sep 18 2020, 05:11:08 Plague Years - Circle Of Darkness (2020)
согласен: надоели одинаковые брутальные вокалы- тут всё в порядке.....по нраву)))
(4) DarkHorde, infiltrator, Metalass, Samaritianin,
Sep 15 2020, 05:29:45 Merkfolk - Echo (2020)
ужас- пробегайте мимо
(1) Shadechaser,
Aug 19 2020, 05:30:38 Hajduk & Akantha & Nimbifer & Sørgelig - Ruins Of Humanity [split] (2020)
как вижу слово- Хайдук.......сразу кеш то прес ну ма ну ма ей ну ма ну ма ей 15.gif 15.gif 15.gif
(1) Eisbar,
Aug 12 2020, 04:21:57 Ensiferum - Thalassic (2020)
Tandra - Time And Eternity (2019)

вот что нужно слушать!!!!!
(1) SAPOGi,
Jul 8 2020, 05:29:55 Nimrød - Twelve Degrees Of Violence (2020)
хороший инструментал
(2) infiltrator, Occultas,

19 Pages V   1 2 3 > » 
- Lo-Fi Version Support form
Copyrights and abuse reports form
Time is now: 17th January 2021 - 20:32:42