Welcome Guest ( Log In | Register )

История благодарностей участнику Victim of fate ::: Спасибо сказали: 2143 раз(а)
Дата поста: В теме: За сообщение: Спасибо сказали:
May 25 2020, 07:14:06 Esoctrilihum - Eternity Of Shaog (2020)
авангардный ,намешано много- сразу проходим...
(1) Daale,
Apr 17 2020, 04:23:27 Ψ.Χ. - Το Φως Το Αληθινό (2016)
ЦИТАТА(Bulldozzzzzzer @ Apr 3 2020, 15:48:33) *
Вкатило.
Много раз услышал здесь King Diamond, и в музыке и в вокале, и это хорошо.

Пропустил в своё время, спасибо людям с Χειμώνας - Χειμώνας (2020)

разные вокалисты
2020 год- хрень
2016- красотища
(1) Bulldozzzzzzer,
Mar 26 2020, 19:59:51 Фаренгейт - Глядя В Бездну (2013)


*Artist: Фаренгейт
*Album: Глядя В Бездну
*Year: 2013
*Genre: Heavy/Gothic Metal
*Country: Russian Federation
*Format: mp3@CBR320kbps
*Size: 121MB

Tracklist:
01. -Intro 1:23
02. -Солнечный свет 7:39
03. -Шаг за черту 5:45
04. -Ты никогда не вернешься 6:17
05.- Заточение 5:08
06.- Все то же небо 5:09
07. -Приговоренный жить 6:29
08. -Безумие 5:30
09. -Черное в черном 5:57
10.- Outro 2:47
******************************
Total playing time: 52:04



[more=Extended info]https://vk.com/farengeit_arh[/more]

[more=Technical info]
Input File: 05-Заточение.mp3
Channels : 2
Sample Rate : 44100
Precision : 16-bit
Duration : 00:05:08.85 = 13620197 samples = 23163.6 CDDA sectors
File Size : 12.3M
Bit Rate : 320k
Sample Encoding: MPEG audio (layer I, II or III)
Comments :
Title=Заточение
Artist=ФАРЕНГЕЙТ
Album=Глядя в бездну
Year=2013

[/more]

Register
(1) infiltrator,
Mar 24 2020, 22:44:27 Фаренгейт - Во Имя Догм [ep] (2020)


*Artist: Фаренгейт
*Album: Во Имя Догм [ep]
*Year: 2020
*Genre: Heavy/Gothic Metal
*Country: Russian Federation
*Format: mp3@CBR320kbps
*Size: 45MB

Tracklist:
1-Исчезнем как тени 3:21
2-Монолог 5:14
3-Наместник 5:57
4-Пляски одержимых 5:37
5-Закат веков 5:46
6-Наместник 2.0 5:57
******************************
Total playing time: 31:52



[more=Technical info]
Input File: cover.jpg

[/more]

Register
(11) Cartman223, chipsgott, Druidir, infiltrator, morbidangelo, Sanctus, senecazm, VALERY, varlam4, wanderer73, Сварог Барг,
Mar 24 2020, 22:34:01 Фаренгейт - Во Имя Догм [ep] (2020)


*Artist: Фаренгейт
*Album: Во Имя Догм [ep]
*Year: 2020
*Genre: Heavy/Gothic Metal
*Country: Russian Federation
*Format: mp3@CBR320kbps
*Size: 44MB

Tracklist:
Исчезнем как тени 3:21
Монолог 5:14
Наместник 5:57
Пляски одержимых 5:37
Закат веков 5:46
Наместник 2.0 Bonus track 2:58
******************************
Total playing time: 28:53

Preview 1

[more=Extended info]Ребята стараются 15 лет и больше...
Поддержим + как они хотели услышать выше мнение))

+ прошлые альбомы по просьбе группу я скину!!![/more]

[more=Technical info]
Input File: cover.jpg

[/more]

Register
(9) Aresson, Cartman223, chipsgott, infiltrator, Kaamos, morbidangelo, senecazm, varlam4, wreak,
Jan 30 2020, 19:12:50 Sepultura - Quadra (2020)
примерно 70% здесь писавшим в 1990 году должно быть по 16 лет ,чтобы вплотную с первых альбомов разбираться в этой группе и так её подло кинуть после 1992 5.gif 5.gif 12.gif
(3) Emm Human, Foneg, infiltrator,
Jan 30 2020, 05:33:47 Nattverd - Styggdom (2020)
классический норвежский блэк!!!!
сойдёт)))
(2) Foneg, infiltrator,
Jan 28 2020, 19:41:30 Mulla - مَوْلَى (2020)
ничего интересного
(2) Foneg, infiltrator,
Jan 22 2020, 05:48:21 Belos - Symphonies From The Underworld (2014)
ЦИТАТА(AlexCrazy @ Jan 21 2020, 17:23:50) *
блэк-тот тут где кто-то нашёл? smile1.gif)

а где визжят и это не ДЭТ- он считает Блэком 1488.gif 1488.gif 1488.gif 1488.gif 1488.gif 1488.gif 1488.gif 1488.gif
(1) Maximvs,
Jan 21 2020, 05:31:18 Nocturnal - The Greater Emptiness (2019)
ЦИТАТА(krotovich @ Jan 20 2020, 21:14:55) *
Очень неинтересный Depressive

1488.gif 1488.gif 1488.gif уморил....
(1) krotovich,
Jan 14 2020, 02:01:06 Retaliation - Seven (2010)
ЦИТАТА(Герб @ Jan 13 2020, 23:03:28) *
Обновите ссылку,пожалуйста.

Register
(1) Герб,
Jan 13 2020, 06:23:19 Deadspawn - Pestilence Reborn (2020)
однообразно
+ приставку блэк можно убрать...в вокале 10%
(2) Andrew, infiltrator,
Jan 10 2020, 06:31:53 Apocalyptica - Cell-0 (2020)
15.gif 15.gif 15.gif 15.gif матушки-ёжики,их кто то после метлы слушает дальше?
(1) Ghostb,
Jan 3 2020, 09:01:43 Suicidal Suppression - Breath Of Death [ep] (2019)


*Artist: Suicidal Suppression
*Album: Breath Of Death [ep]
*Year: 2019
*Genre: Depressive Black Metal
*Country: Estonia
*Format: mp3@VBR160kbps
*Size: 31MB

Tracklist:
01. Death Behind 6:12
02. Pain Inside 5:29
03. One Way Ticket 4:56
04. Mutilated Hands 5:46
05. Last Seconds 3:56
******************************
Total playing time: 26:19



[more=Technical info]
Input File: 03. One Way Ticket.mp3
Channels : 2
Sample Rate : 22050
Precision : 16-bit
Duration : 00:04:56.89 = 6546491 samples ~ 22267 CDDA sectors
File Size : 6.07M
Bit Rate : 163k
Sample Encoding: MPEG audio (layer I, II or III)
Comments :
Title=One Way Ticket
Artist=Suicidal Suppression
Album=Breath of Death
Year=2019

[/more]

Register
(11) 1968_janeart, aleon, GorAtheist, infiltrator, kim666, kimkayoung, lekram, Olethros, pothead, Rosen, vasiljev_sergej,
Jan 3 2020, 08:24:41 Unreality In One's Self - A Man In Shadows (2019)
шлак инструментальный
(2) dagger666, satanist666,
Dec 26 2019, 05:22:18 Malum - Possessed Years [compilation] (2019)
зашибись!!!!!!
потому что я противник сплитов.
(1) DarkHorde,
Nov 28 2019, 19:39:24 Imsark - Anfang (2019)
инструментал((((
(1) Andrew,
Nov 25 2019, 05:47:44 Next Waste Dimension - Signal To Noise (2011)


*Artist: Next Waste Dimension
*Album: Signal To Noise
*Year: 2011
*Genre: Industrial Death Metal
*Country: Netherlands
*Format: mp3@CBR128kbps
*Size: 41MB

Tracklist:
01. Unspoken 4:34
02. Ode to Revolution 4:06
03. Under Strain 4:28
04. Closure 3:43
05. Deepwater Horizon 3:36
06. Radio Moscow 3:37
07. Sigma XI 4:29
08. Distrust 4:46
09. Streets on Fire 6:57
10. No Good (non-album Prodigy tribute) 4:29
******************************
Total playing time: 44:45

[more=Technical info]
Input File: 03. Under Strain.mp3
Channels : 2
Sample Rate : 44100
Precision : 16-bit
Duration : 00:04:28.68 = 11848612 samples = 20150.7 CDDA sectors
File Size : 4.30M
Bit Rate : 128k
Sample Encoding: MPEG audio (layer I, II or III)
Comments :
Title=Under Strain
Artist=Next Waste Dimension
Album=Signal to Noise
Tracknumber=03. Under Strain
Year=2011

[/more]

Register
(1) soulflesh,
Nov 25 2019, 05:24:54 Ruho - The Devout Thrum (2019)
таааааак себе,проходим
(1) Razorbladeswaltz,
Nov 9 2019, 19:57:07 Valar Morghulis - Fields Of Ashes (2019)
валар дохаэрис 5.gif 5.gif 5.gif
(1) Deze,
Nov 8 2019, 05:47:54 Crisix - Sessions #1 - American Thrash (2019)
очень жаль что не новый альбом....
(1) DarkHorde,
Oct 11 2019, 05:52:43 Eternity - Everything Never Ends (2009)
ЦИТАТА(Lanceatum @ Oct 11 2019, 06:47:01) *
Reupload please

Register
(3) kim666, Lanceatum, varlam4,
Sep 24 2019, 05:52:13 Nikita Kapernaumov - While She Was Embracing Her Spring (2019)
казематы Питера совсем убили паренька
(5) Deze, Ghostb, Rodriga, russ777, SAPOGi,
Sep 9 2019, 20:33:14 Nuitville - When The Darkness Falls [ep] (2019)


*Artist: Nuitville
*Album: When The Darkness Falls [ep]
*Year: 2019
*Genre: Post-Black Metal
*Country: Ukraine
*Format: mp3@CBR128kbps
*Size: 17MB

Tracklist:
01. When the Darkness Falls 6:57
02. Cold Water 4:45
03. Recueillement (Amesoeurs cover) 6:41
******************************
Total playing time: 18:23

[more=Technical info]
Input File: 02. Cold Water.mp3
Channels : 2
Sample Rate : 44100
Precision : 16-bit
Duration : 00:04:45.60 = 12594828 samples = 21419.8 CDDA sectors
File Size : 4.57M
Bit Rate : 128k
Sample Encoding: MPEG audio (layer I, II or III)
Comments :
Title=Cold Water
Artist=Nuitville
Album=When The Darkness Falls (EP)
Tracknumber=2
Year=2019

[/more]

Register
(5) metalwoman, Moonlover, Olethros, Rosen, vasiljev_sergej,
Apr 25 2019, 20:39:10 Popiół - Zabobony (2019)
шляпа она и есть шляпа
(1) folker,

18 Pages V   1 2 3 > » 
- Lo-Fi Version Support form
Copyrights and abuse reports form
Time is now: 2nd July 2020 - 17:44:41