Welcome Guest ( Log In | Register )

История благодарностей участнику Razorbladeswaltz ::: Спасибо сказали: 1162 раз(а)
Дата поста: В теме: За сообщение: Спасибо сказали:
Jul 13 2018, 21:45:16 KISS - Asylum (1985)
reuploaded
Register


удивлён, что альбом в неформате валяется - хэви и глэма тут предостаточно.

продолжаю знакомиться с дискографией коллектива - и опять оч хороший стафф. vam1972 всё расписал, можно и не повторяться.
(1) Aresson,
Jul 13 2018, 20:31:53 Heidenland - Stormvloek: Beschonken, Kwaad En Goddeloos [demo] (2014)
reuploaded
Register
(3) kim666, thenecromancer, varg-38ru,
Jul 9 2018, 21:35:32 Judas Iscariot - An Ancient Starry Sky (2018)
ЦИТАТА(Chasm @ Jul 10 2018, 01:06:11) *
Граждане Иудопоклонники и просто Иудошарящие! Сколько здесь новья реально? Слышу старые вещи...


трека Black Eternal Winds я не знаю/не помню, остальное уже было.
(2) Chasm, infiltrator,
Jul 5 2018, 22:30:10 Exhumed - Necrocracy (2013)
reuploaded
Register
(2) Aresson, wanderer73,
Jul 5 2018, 11:23:51 Cryptworm - Verminosis [ep] (2018)


*Artist: Cryptworm
*Album: Verminosis [ep]
*Year: 2018
*Genre: Old School Death Metal
*Country: United Kingdom
*Format: mp3@CBR128kbps
*Size: 12MB

Tracklist:
1. Rotting Casket 03:26
2. Verminosis 03:33
3. Cadaveric Flesh Engorgement 04:32
******************************
Total playing time: 11:31



[more=Technical info]
Input File: 02 Cryptworm - Verminosis.mp3
Channels : 2
Sample Rate : 44100
Precision : 16-bit
Duration : 00:03:33.89 = 9432637 samples = 16041.9 CDDA sectors
File Size : 3.80M
Bit Rate : 142k
Sample Encoding: MPEG audio (layer I, II or III)
Comments :
Title=Verminosis
Artist=Cryptworm
Album=Verminosis (EP)
Tracknumber=2
Year=2018
Genre=Death Metal

[/more]

Register
(7) cesar, marilin, MeathookSeed, METALHUNTER, Rosen, wanderer73, wgs73,
Jul 5 2018, 10:57:32 Cryptworm - Cryptworm [demo] (2017)
шедевральный замогильный олдскул + качает так, что чуть башка не отвалилась во время прослушивания. жена поглядывает как на дебила. мои рекомендации.
(1) vosmidesijatye,
Jul 5 2018, 10:22:38 Hermóðr - Carved In Ice [ep] (2016)
reuploaded
Register
(1) artscald,
Jul 4 2018, 23:16:44 Arx Atrata - Oblivion (2013)
reuploaded
Register
(1) kim666,
Jul 4 2018, 11:25:45 Kiss - Sonic Boom (2009)
начинаю знакомство с дискографией коллектива (ВНЕЗАПНО) с этого альбома. пока круто.
(1) vosmidesijatye,
Jul 3 2018, 22:21:13 Suicidal Angels - Division Of Blood (2016)
reuploaded
Register
(1) Aresson,
Jun 18 2018, 22:07:41 Mystik - Af Herrens Mystik... (Kapitel II) [compilation] (2016)
reuploaded
Register
(1) wendigo,
Jun 17 2018, 23:25:16 Переезд на новый сервер
ЦИТАТА(FullofHate @ Jun 18 2018, 01:23:24) *
скажу огромное человеческое спасибо за самый клевый метал-формум и труды администрации.

плюсую. слава админу и остальной команде. корабль плывёт.
(1) Samaritianin,
Jun 14 2018, 13:49:06 Psychobolia - Chiaroscuro (2017)
первый альбом был убийственный, а тут какой-то спотыкающийся зомбарь
(1) vosmidesijatye,
Jun 14 2018, 11:25:33 Blood Freak - Total Destruction Of The Human Form (2017)
ЦИТАТА(Chasm @ Oct 31 2017, 02:11:38) *
кровавая лесопилка


точное описание, отличный лонгплей.
(1) vosmidesijatye,
Jun 11 2018, 19:25:43 Graves At Sea - The Curse That Is (2016)
ЦИТАТА(vosmidesijatye @ Jun 11 2018, 22:16:55) *
Documents of grief их от 2004 года тебя вообще взорвут.


взял на заметку)
(1) vosmidesijatye,
Jun 10 2018, 09:01:08 Goliard - Iconoclastic Hymns (2017)
замечательный стафф, (бес)шабашный и в меру мелодичный, Fhoi Myore напомнило. сильно по нраву.
(1) Storky,
Jun 9 2018, 12:32:39 Graves At Sea - The Curse That Is (2016)
reuploaded
Register
(1) gena,
Jun 4 2018, 22:51:26 Fondlecorpse - Dark Contagion (2017)
ЦИТАТА(vosmidesijatye @ Jun 5 2018, 02:28:40) *
Как будто это плохо 1488.gif

тут нигде не написано, что это плохо.
ты просто привык, что его тут ссаными тряпками за графоманию закидывают)
(1) vosmidesijatye,
Jun 4 2018, 19:29:42 Weekend Nachos - Torture [ep] (2005)


*Artist: Weekend Nachos
*Album: Torture [ep]
*Year: 2005
*Genre: Powerviolence/Sludge Metal
*Country: United States
*Format: mp3@CBR192kbps
*Size: 17MB

Tracklist:
1. Intro / End of Your Faith 01:50
2. Snowball Fight 00:21
3. I Am Not the Wedding Singer 00:11
4. Torture 00:49
5. Fashioncore '88 00:24
6. Utopia 00:12
7. Necrolepsy 00:49
8. Scared of Naked Men 00:50
9. Equal Rights 00:36
10. 10 Things I Hate About You 00:38
11. Dimension X 00:38
12. Sweatpants 00:21
13. Image 00:24
14. 4 Years 00:08
15. American Hardcore 00:23
16. Jocks from the Inside Out 00:39
17. Sludge 02:06
******************************
Total playing time: 11:19



[more=Technical info]
Input File: 04. Torture.mp3
Channels : 1
Sample Rate : 44100
Precision : 16-bit
Duration : 00:00:50.01 = 2205265 samples = 3750.45 CDDA sectors
File Size : 1.27M
Bit Rate : 203k
Sample Encoding: MPEG audio (layer I, II or III)
Comments :
Title=Torture
Artist=Weekend Nachos
Album=Torture (EP)
Tracknumber=4/17
Year=2005
Genre=Hardcore Punk \ Powerviolence \ Grindcore

[/more]

Register
(1) Ostinato,
Jun 4 2018, 05:33:28 Weekend Nachos - Watch You Suffer [single] (2013)


*Artist: Weekend Nachos
*Album: Watch You Suffer [single]
*Year: 2013
*Genre: Powerviolence/Sludge Metal
*Country: United States
*Format: mp3@CBR320kbps
*Size: 14MB

Tracklist:
1. Watch You Suffer 03:35
2. That Life of Yours 02:35
******************************
Total playing time: 6:10



[more=Technical info]
Input File: 01. Watch You Suffer.mp3
Channels : 2
Sample Rate : 44100
Precision : 16-bit
Duration : 00:03:34.62 = 9464698 samples = 16096.4 CDDA sectors
File Size : 8.61M
Bit Rate : 321k
Sample Encoding: MPEG audio (layer I, II or III)
Comments :
Title=Watch You Suffer
Artist=Weekend Nachos
Album=Watch You Suffer
Tracknumber=1
Year=2013
Genre=Hardcore Punk \ Powerviolence \ Grindcore

[/more]

Register
(1) Ostinato,
Jun 4 2018, 05:27:44 Weekend Nachos - Black Earth [ep] (2011)


*Artist: Weekend Nachos
*Album: Black Earth [ep]
*Year: 2011
*Genre: Powerviolence/Sludge Metal
*Country: United States
*Format: mp3@CBR192kbps
*Size: 7MB

Tracklist:
1. Black Earth 01:34
2. Friendship 00:37
3. Priorities 01:25
4. No Saints 01:31
******************************
Total playing time: 5:07



[more=Technical info]
Input File: 02. Friendship.mp3
Channels : 2
Sample Rate : 44100
Precision : 16-bit
Duration : 00:00:42.41 = 1870325 samples = 3180.82 CDDA sectors
File Size : 1.07M
Bit Rate : 202k
Sample Encoding: MPEG audio (layer I, II or III)
Comments :
Title=Friendship
Artist=Weekend Nachos
Album=Black Earth (EP)
Tracknumber=2
Year=2011
Genre=Hardcore Punk \ Powerviolence \ Grindcore

[/more]

Register
(1) Ostinato,
May 24 2018, 18:55:36 Predatory Light - Predatory Light (2016)
reuploaded
Register
(1) Korpse,
May 20 2018, 19:50:27 Matianak - Non Compos Mentis (2018)
даже не знаю, кто больше доставляет, вокалистка или барабанщик..
(1) Bekkerev,
May 20 2018, 19:44:09 Bedaius - Groß Tann (2018)
ЦИТАТА(stone88 @ May 19 2018, 19:52:03) *
Дайте другой обменник

угощайся.
Register

(1) 1968_janeart,
May 20 2018, 19:25:23 Morgengrau - Blood Oracle (2018)
female-fronted
за барабанами - концертный драммер Nightbringer'а.
(1) Samaritianin,

21 Pages V   1 2 3 > » 
- Lo-Fi Version Support form
Copyrights and abuse reports form
Time is now: 22nd July 2018 - 10:07:15