Welcome Guest ( Log In | Register )

История благодарностей участнику Razorbladeswaltz ::: Спасибо сказали: 1927 раз(а)
Дата поста: В теме: За сообщение: Спасибо сказали:
Jun 25 2020, 13:26:09 Talvi - Yksi Elämä, Yksi Pakotie (2015)
mirror
Register
(3) Disgorge666, Ingvar, rimfrost,
Jun 24 2020, 21:37:15 Некорректно отображаются страницы
Добрый вечер дамы и господа, прошу уточнить, есть ли у кого-то ещё такие проблемы с отображением сайта как у меня и можно ли данный косяк исправить. Скрины проблемы приложил по ссылке тыц
Тачка - Win10, Chrome Версия 83.0.4103.106 (Официальная сборка)
(1) Arashi,
Jun 22 2020, 21:07:57 Новости Black-направления
ЦИТАТА(Фо @ Jun 16 2020, 00:47:36) *
Они всегда правильно записывались и звучали. Мне другого звука не надо. Это был бы не Дарктрон.


+616
каждый альбом, начиная с Соулсайда и до Total Death включительно обладает своим собственным звуковым шармом. 7 разных по звуку и наполнению последовательно выпущенных альбомов.
если в поле дождь и гром, на*уй нужен агроном. тем более, спустя столько лет.
(4) infiltrator, Occultas, Starseeker, Фо,
Jun 17 2020, 23:04:07 Mroh - The Story (2020)
ЦИТАТА(vosmidesijatye @ Jun 18 2020, 02:57:38) *
Держи друже

9.gif
(1) vosmidesijatye,
Jun 1 2020, 21:47:35 Odal - Fimbul Winter [ep] (2002)
reuploaded
Register
(2) thenecromancer, Wail,
May 11 2020, 07:03:14 Zardens - Heretic Death Cult (2018)
reuploaded
Register
(2) satanist666, varlam4,
May 9 2020, 07:06:45 Dark Doom - Long Forgotten Lore [ep] (2017)
reuploaded
Register
(1) varg-38ru,
May 5 2020, 20:45:05 Realm Of Carnivora - Vikati Vari Te Palgel, Saabub Aeg Ja Teras Langeb (1999)
reuploaded
Register
(6) MortSathynr, thenecromancer, varlam4, vasiljev_sergej, Wail, wendigo,
Apr 18 2020, 13:30:58 Cult Of Fire - Triumvirát (2012)
величественный, напористый, мелодичный и мрачный материал. 25.gif то, что нужно, ничего лишнего и чужеродного.
(1) garmonbozia,
Apr 17 2020, 23:13:04 Yaldabaoth - That Which Whets The Saccharine Palate (2020)
надо заценить, что за Yadalbayob 15.gif
(1) garmonbozia,
Apr 12 2020, 07:54:23 Morbid Sorcery - Morbid Winds Of Sorcery [demo] (2018)
богато боснийское подполье на катакомбную блэкуху. суровый, но слушабельный стафф.
(1) Абигор,
Mar 22 2020, 13:21:05 Suppression - Repugnant Remains [ep] (2019)
при прослушивании чуть не кончил. это бомба, блт 25.gif
(2) Samaritianin, troll_swamp,
Mar 21 2020, 10:30:00 Burning Witches - Hexenhammer (2018)
reuploaded
Register
(1) varlam4,
Mar 21 2020, 10:24:40 Broken Void - Nonexistence [ep] (2017)
reuploaded
Register
(1) varlam4,
Mar 17 2020, 07:06:02 Werther & Wulfheim & Necropolis - Blackend [split] (2012)
reuploaded
Register
(1) kim666,
Mar 12 2020, 08:20:50 Hideous Monarch - The God's Extinction [ep] (2019)
отличный релиз. ожидал здесь рецуху defamer'а увидеть. он обычно в годном дэтхе отмечается стабильно)
(1) Occultas,
Mar 11 2020, 07:54:49 Gabestok - Demos [compilation] (2018)
reuploaded
Register
(2) infiltrator, thenecromancer,
Feb 24 2020, 13:28:39 Thyruz - Diseblot (2010)
reuploaded
Register
(2) kim666, SyncestrA,
Feb 24 2020, 13:11:43 Razor - Malicious Intent (1986)
reuploaded
Register
(2) Ingvar, metalfanatic666,
Feb 9 2020, 15:41:13 Arathgoth - Dark Like Space (2014)
reuploaded
Register
(2) kim666, SumerianDaemon,
Feb 9 2020, 10:54:05 Tyrаkk - Cult Of The Dаrk Lord (2017)
reuploaded
Register
(1) varlam4,
Jan 3 2020, 08:42:37 Новости Black-направления
Rimfrost всё

(1) Vardlokkur,
Dec 30 2019, 12:15:53 Savagez - New Dimensions (2019)
странно, что ни одного коммента. ощутимо по-Шульдинеровски ребята работают, и барышня на загляденье рычит. хороший релиз.
(1) Язва,
Dec 25 2019, 07:03:04 Thin Lizzy - Thunder And Lightning (1983)
reuploaded
Register
(1) thenecromancer,
Dec 16 2019, 11:24:18 Unleash The Archers - Explorers [ep] (2019)


*Artist: Unleash The Archers
*Album: Explorers [ep]
*Year: 2019
*Genre: Power/Melodic Death Metal
*Country: Canada
*Format: mp3@CBR320kbps
*Size: 24MB

Tracklist:
1. Northwest Passage (Stan Rogers cover) 04:35
2. Heartless World (Teaze cover) 05:48
******************************
Total playing time: 10:23



[more=Technical info]
Input File: 02. Heartless World.mp3
Channels : 2
Sample Rate : 44100
Precision : 16-bit
Duration : 00:05:48.63 = 15374407 samples = 26147 CDDA sectors
File Size : 14.2M
Bit Rate : 326k
Sample Encoding: MPEG audio (layer I, II or III)
Comments :
Title=Heartless World (Teaze cover)
Artist=Unleash The Archers
Album=Explorers [EP]
Tracknumber=02
Year=2019
Genre=12

[/more]

Register
(17) ASkyThatBurns, aviacademy, berserkr, boby9052, Druidir, Herrant, infiltrator, Mogozoz, morbidangelo, Olethros, Rosen, senecazm, sergsazan, VALERY, Veggr, wn129aa, wreak,

33 Pages V   1 2 3 > » 
- Lo-Fi Version Support form
Copyrights and abuse reports form
Time is now: 3rd July 2020 - 11:49:25