Welcome Guest ( Log In | Register )

История благодарностей участнику Razorbladeswaltz ::: Спасибо сказали: 1206 раз(а)
Дата поста: В теме: За сообщение: Спасибо сказали:
Sep 17 2018, 18:17:01 Nox Formulae - The Hidden Paths To Black Ecstasy (2016)
reuploaded
Register
(1) varg-38ru,
Sep 16 2018, 18:07:53 Trolls In The Mist - Hordes Of Angband [ep] (2012)
reuploaded with correct tagz
Register
(3) kim666, Unleashed, varg-38ru,
Sep 14 2018, 13:58:19 Blutfahne & Walsung - Transcendental Creation [split] (2018)
ЦИТАТА(Gudas @ Sep 12 2018, 19:54:16) *
Буду благодарен за другой обменник.

Register
(2) SilentNidhogg, Sorc,
Sep 13 2018, 18:55:23 Funesto - Caminhando Para Morte [ep] (2014)
reuploaded
Register
(2) kim666, varg-38ru,
Sep 9 2018, 17:37:48 Eldrich - Existential Nihilism [ep] (2016)
reuploaded
Register
(1) kim666,
Sep 2 2018, 07:23:43 Asregen - Saturnus’ Nacht (2014)
reuploaded
Register
(2) kim666, varg-38ru,
Sep 1 2018, 19:22:57 Old Blood - Promo 2018 [demo] (2018)
нормальная труёвина, хоть и без малейшей доли самобытности. сыграно лучше, чем на полноформатном Ancestor, посему оставил.
(1) Occultas,
Aug 30 2018, 21:24:09 Guldur - Graveyards [single] (2017)
mirror, pls
(1) thenecromancer,
Aug 30 2018, 12:32:35 Luctus - The Dawn Ov The Eclipsed Desperation [demo] (2003)
reuploaded
Register
(3) kim666, thenecromancer, varg-38ru,
Aug 25 2018, 20:43:57 Nachtzeit - Där Föddes En Längtan [ep] (2015)
reuploaded
Register
(1) thenecromancer,
Aug 24 2018, 12:27:57 Convulsing - Grievous (2018)
ЦИТАТА(6666666 @ Aug 24 2018, 00:36:49) *
Я априори любую музыку такой продолжительности считаю этим самым, кроме дума, эмбиента и академа.


сильно зря. парень валит такой плотный мрак, что хоть ножом режь.
(1) aesteticvice,
Aug 23 2018, 10:06:25 Forgotten Deity - Wind [ep] (2014)
reuploaded
Register
(2) kim666, varg-38ru,
Aug 22 2018, 19:11:16 Convulsing - Grievous (2018)
дебютный альбом сильно впечатлял, поэтому и от нового ожидания самые высокие.
(1) garmonbozia,
Aug 22 2018, 10:52:36 Sewer - Vomiting Into The Mouth Of Satan (2015)
reuploaded
Register
(2) kim666, varg-38ru,
Aug 20 2018, 13:05:17 Forgotten Deity - The Gates Of Ice (2014)
reuploaded
Register
(1) kim666,
Jul 22 2018, 17:58:26 Lunaticum - Icognita Da Existencia [demo] (2014)
reuploaded
Register
(1) kim666,
Jul 13 2018, 21:45:16 KISS - Asylum (1985)
reuploaded
Register


удивлён, что альбом в неформате валяется - хэви и глэма тут предостаточно.

продолжаю знакомиться с дискографией коллектива - и опять оч хороший стафф. vam1972 всё расписал, можно и не повторяться.
(1) Aresson,
Jul 13 2018, 20:31:53 Heidenland - Stormvloek: Beschonken, Kwaad En Goddeloos [demo] (2014)
reuploaded
Register
(4) kim666, pfk505, thenecromancer, varg-38ru,
Jul 9 2018, 21:35:32 Judas Iscariot - An Ancient Starry Sky (2018)
ЦИТАТА(Chasm @ Jul 10 2018, 01:06:11) *
Граждане Иудопоклонники и просто Иудошарящие! Сколько здесь новья реально? Слышу старые вещи...


трека Black Eternal Winds я не знаю/не помню, остальное уже было.
(2) Chasm, infiltrator,
Jul 5 2018, 22:30:10 Exhumed - Necrocracy (2013)
reuploaded
Register
(2) Aresson, wanderer73,
Jul 5 2018, 11:23:51 Cryptworm - Verminosis [ep] (2018)


*Artist: Cryptworm
*Album: Verminosis [ep]
*Year: 2018
*Genre: Old School Death Metal
*Country: United Kingdom
*Format: mp3@CBR128kbps
*Size: 12MB

Tracklist:
1. Rotting Casket 03:26
2. Verminosis 03:33
3. Cadaveric Flesh Engorgement 04:32
******************************
Total playing time: 11:31



[more=Technical info]
Input File: 02 Cryptworm - Verminosis.mp3
Channels : 2
Sample Rate : 44100
Precision : 16-bit
Duration : 00:03:33.89 = 9432637 samples = 16041.9 CDDA sectors
File Size : 3.80M
Bit Rate : 142k
Sample Encoding: MPEG audio (layer I, II or III)
Comments :
Title=Verminosis
Artist=Cryptworm
Album=Verminosis (EP)
Tracknumber=2
Year=2018
Genre=Death Metal

[/more]

Register
(7) cesar, marilin, MeathookSeed, METALHUNTER, Rosen, wanderer73, wgs73,
Jul 5 2018, 10:57:32 Cryptworm - Cryptworm [demo] (2017)
шедевральный замогильный олдскул + качает так, что чуть башка не отвалилась во время прослушивания. жена поглядывает как на дебила. мои рекомендации.
(2) Evilded, vosmidesijatye,
Jul 5 2018, 10:22:38 Hermóðr - Carved In Ice [ep] (2016)
reuploaded
Register
(1) artscald,
Jul 4 2018, 23:16:44 Arx Atrata - Oblivion (2013)
reuploaded
Register
(1) kim666,
Jul 4 2018, 11:25:45 Kiss - Sonic Boom (2009)
начинаю знакомство с дискографией коллектива (ВНЕЗАПНО) с этого альбома. пока круто.
(1) vosmidesijatye,

22 Pages V   1 2 3 > » 
- Lo-Fi Version Support form
Copyrights and abuse reports form
Time is now: 20th September 2018 - 12:09:05