Welcome Guest ( Log In | Register )

История благодарностей участнику Razorbladeswaltz ::: Спасибо сказали: 1987 раз(а)
Дата поста: В теме: За сообщение: Спасибо сказали:
Sep 12 2020, 09:40:59 Edge Of Sanity - Purgatory Afterglow (1994)
ЦИТАТА(vam1972 @ Sep 12 2020, 07:30:32) *
Не перестаю удивляться, как Свано удавалось штамповать шедевры пачками.

симметрично pray.gif
(1) vam1972,
Aug 31 2020, 23:58:22 Imperial Crystalline Entombment - Imperial Crystalline Entombment [demo] (2003)
Демо-лента недолго просуществовавшего (2003-2004 гг) проекта музыкантов из Aurora Borealis и вокалиста Mike Hrubovcak (Monstrosity, Vile). Содержит агрессивный северный блэк в духе Immortal и Marduk. Несмотря на то, что релиз носит демонстрационный характер, качество записи на приличном уровне. Мои рекомендации всем поклонникам жанра.
(2) Occultas, varlam4,
Aug 30 2020, 13:06:30 Abigail - The Early Black Years [best of/compilation] (2007)
reuploaded
Register
(1) wanderer73,
Aug 30 2020, 13:01:37 Abigail - Sweet Baby Metal Slut (2009)
reuploaded
Register
(2) Wail, wanderer73,
Aug 30 2020, 12:53:39 Abigail & Ironfist & Deiphago - Holocaustik Metal Sexxxekution Whoreslaughters [split] (2008)
reuploaded
Register
(3) stumpheavyrock, varlam4, Wail,
Aug 30 2020, 12:02:32 Abigail - Welcome All Hell Fuckers [ep] (2001)
reuploaded
Register
(2) Wail, wanderer73,
Aug 30 2020, 10:58:28 Voivod - Into My Hypercube [single] (1989)
reuploaded
Register
(1) Wail,
Aug 30 2020, 09:04:19 Mistwalker - The Silence Of Soil (2013)
reuploaded
Register
(1) Wail,
Aug 26 2020, 09:03:59 Toxic Holocaust - An Overdose Of Death... (2008)
отличный башкотряс в лучших традициях banana.gif
(1) Ingvar,
Jul 23 2020, 07:08:22 Arachnigod - Forest Of Stars (2014)
reuploaded
Register
(1) vasiljev_sergej,
Jul 17 2020, 15:17:23 Doodsangst - Kleudde En De Moerasduivel [demo] (2019)
ЦИТАТА(Chasm @ Jul 17 2020, 03:12:36) *
Перезалейте плз


угощайся
Register
(2) Chasm, thenecromancer,
Jul 11 2020, 19:08:22 Thætas - Shrines To Absurdity (2020)
ЦИТАТА(6666666 @ Jul 11 2020, 04:34:39) *
То-то они такое такое говно записывают.

21.gif
(1) Metalass,
Jul 5 2020, 14:35:08 Mind Mold - Mind Mold [ep] (2017)
reuploaded
Register
(2) MortSathynr, varlam4,
Jul 3 2020, 23:33:42 Diamond Head - Singles [compilation] (1992)


*Artist: Diamond Head
*Album: Singles [compilation]
*Year: 1992
*Genre: Heavy Metal
*Country: United Kingdom
*Format: mp3@CBR320kbps
*Size: 171MB

Tracklist:
1. Helpless 06:51
2. Sweet and Innocent 03:38
3. Streets of Gold 03:34
4. The Prince 06:13
5. Sucking My Love 09:33
6. Waited Too Long 04:33
7. Play It Loud 03:21
8. It's Electric 03:39
9. Trick or Treat 03:31
10. Dead Reckoning 03:32
11. Shoot Out the Lights 03:24
12. In the Heat of the Night 03:23
13. Makin' Music (long version) 06:08
14. Play It Loud (live) 06:15
15. Sucking My Love (live) 09:10
******************************
Total playing time: 1:16:45



[more=Extended info]Just that: a compilation, of long-forgotten vinyl singles.
Tracks 01 to 07 are actually the 1986 remix versions that were rehashed by Brian Tatler himself.

Recording information:
01: from "Shoout Out The Lights" 7" 1980
02-03: "Sweet and Innocent" 7" 1980
04, 05, 08: from "Lightning to the Nations" Lp 1980
06-07: "Waited Too Long" 7" 1981
09-11: "Four Cuts" Ep 1982
12: from "In the Heat of the Night" 7" 1982
13: from "Making Music" 7" 1983
14: from "The Friday Rock Show Sessions" (1980-1992)
15: from "Sucking My Love" 7" 1983

https://www.metal-archives.com/albums/Diamond_Head/Singles/2072[/more]

[more=Technical info]
Input File: 10. Dead Reckoning.mp3
Channels : 2
Sample Rate : 44100
Precision : 16-bit
Duration : 00:03:33.15 = 9399827 samples = 15986.1 CDDA sectors
File Size : 8.62M
Bit Rate : 324k
Sample Encoding: MPEG audio (layer I, II or III)
Comments :
Title=Dead Reckoning
Artist=Diamond Head
Album=Singles
Tracknumber=10/15
Year=1992
Genre=NWOBHM

[/more]

Register
(17) caro, Evilded, gwar, igore2911, infiltrator, Lanceatum, Lukittaz, marilin, Olethros, Rosen, senecazm, tashkinoff, thenecromancer, tireheb, varlam4, Wail, wreak,
Jun 25 2020, 13:26:09 Talvi - Yksi Elämä, Yksi Pakotie (2015)
mirror
Register
(3) Disgorge666, Ingvar, rimfrost,
Jun 24 2020, 21:37:15 Некорректно отображаются страницы
Добрый вечер дамы и господа, прошу уточнить, есть ли у кого-то ещё такие проблемы с отображением сайта как у меня и можно ли данный косяк исправить. Скрины проблемы приложил по ссылке тыц
Тачка - Win10, Chrome Версия 83.0.4103.106 (Официальная сборка)
(1) Arashi,
Jun 22 2020, 21:07:57 Новости Black-направления
ЦИТАТА(Фо @ Jun 16 2020, 00:47:36) *
Они всегда правильно записывались и звучали. Мне другого звука не надо. Это был бы не Дарктрон.


+616
каждый альбом, начиная с Соулсайда и до Total Death включительно обладает своим собственным звуковым шармом. 7 разных по звуку и наполнению последовательно выпущенных альбомов.
если в поле дождь и гром, на*уй нужен агроном. тем более, спустя столько лет.
(4) infiltrator, Occultas, Starseeker, Фо,
Jun 17 2020, 23:04:07 Mroh - The Story (2020)
ЦИТАТА(vosmidesijatye @ Jun 18 2020, 02:57:38) *
Держи друже

9.gif
(1) vosmidesijatye,
Jun 1 2020, 21:47:35 Odal - Fimbul Winter [ep] (2002)
reuploaded
Register
(2) thenecromancer, Wail,
May 11 2020, 07:03:14 Zardens - Heretic Death Cult (2018)
reuploaded
Register
(2) satanist666, varlam4,
May 9 2020, 07:06:45 Dark Doom - Long Forgotten Lore [ep] (2017)
reuploaded
Register
(1) varg-38ru,
May 5 2020, 20:45:05 Realm Of Carnivora - Vikati Vari Te Palgel, Saabub Aeg Ja Teras Langeb (1999)
reuploaded
Register
(6) MortSathynr, thenecromancer, varlam4, vasiljev_sergej, Wail, wendigo,
Apr 18 2020, 13:30:58 Cult Of Fire - Triumvirát (2012)
величественный, напористый, мелодичный и мрачный материал. 25.gif то, что нужно, ничего лишнего и чужеродного.
(1) garmonbozia,
Apr 17 2020, 23:13:04 Yaldabaoth - That Which Whets The Saccharine Palate (2020)
надо заценить, что за Yadalbayob 15.gif
(1) garmonbozia,
Apr 12 2020, 07:54:23 Morbid Sorcery - Morbid Winds Of Sorcery [demo] (2018)
богато боснийское подполье на катакомбную блэкуху. суровый, но слушабельный стафф.
(1) Абигор,

33 Pages V   1 2 3 > » 
- Lo-Fi Version Support form
Copyrights and abuse reports form
Time is now: 19th September 2020 - 07:09:19