Welcome Guest ( Log In | Register )

История благодарностей участнику Razorbladeswaltz ::: Спасибо сказали: 1843 раз(а)
Дата поста: В теме: За сообщение: Спасибо сказали:
Mar 22 2020, 13:21:05 Suppression - Repugnant Remains [ep] (2019)
при прослушивании чуть не кончил. это бомба, блт 25.gif
(2) Samaritianin, troll_swamp,
Mar 21 2020, 10:30:00 Burning Witches - Hexenhammer (2018)
reuploaded
Register
(1) varlam4,
Mar 21 2020, 10:24:40 Broken Void - Nonexistence [ep] (2017)
reuploaded
Register
(1) varlam4,
Mar 17 2020, 07:06:02 Werther & Wulfheim & Necropolis - Blackend [split] (2012)
reuploaded
Register
(1) kim666,
Mar 12 2020, 08:20:50 Hideous Monarch - The God's Extinction [ep] (2019)
отличный релиз. ожидал здесь рецуху defamer'а увидеть. он обычно в годном дэтхе отмечается стабильно)
(1) Occultas,
Mar 11 2020, 07:54:49 Gabestok - Demos [compilation] (2018)
reuploaded
Register
(2) infiltrator, thenecromancer,
Feb 24 2020, 13:28:39 Thyruz - Diseblot (2010)
reuploaded
Register
(1) kim666,
Feb 24 2020, 13:11:43 Razor - Malicious Intent (1986)
reuploaded
Register
(1) Ingvar,
Feb 9 2020, 15:41:13 Arathgoth - Dark Like Space (2014)
reuploaded
Register
(2) kim666, SumerianDaemon,
Feb 9 2020, 10:54:05 Tyrаkk - Cult Of The Dаrk Lord (2017)
reuploaded
Register
(1) varlam4,
Jan 3 2020, 08:42:37 Новости Black-направления
Rimfrost всё

(1) Vardlokkur,
Dec 30 2019, 12:15:53 Savagez - New Dimensions (2019)
странно, что ни одного коммента. ощутимо по-Шульдинеровски ребята работают, и барышня на загляденье рычит. хороший релиз.
(1) Язва,
Dec 25 2019, 07:03:04 Thin Lizzy - Thunder And Lightning (1983)
reuploaded
Register
(1) thenecromancer,
Dec 16 2019, 11:24:18 Unleash The Archers - Explorers [ep] (2019)


*Artist: Unleash The Archers
*Album: Explorers [ep]
*Year: 2019
*Genre: Power/Melodic Death Metal
*Country: Canada
*Format: mp3@CBR320kbps
*Size: 24MB

Tracklist:
1. Northwest Passage (Stan Rogers cover) 04:35
2. Heartless World (Teaze cover) 05:48
******************************
Total playing time: 10:23



[more=Technical info]
Input File: 02. Heartless World.mp3
Channels : 2
Sample Rate : 44100
Precision : 16-bit
Duration : 00:05:48.63 = 15374407 samples = 26147 CDDA sectors
File Size : 14.2M
Bit Rate : 326k
Sample Encoding: MPEG audio (layer I, II or III)
Comments :
Title=Heartless World (Teaze cover)
Artist=Unleash The Archers
Album=Explorers [EP]
Tracknumber=02
Year=2019
Genre=12

[/more]

Register
(17) ASkyThatBurns, aviacademy, berserkr, boby9052, Druidir, Herrant, infiltrator, Mogozoz, morbidangelo, Olethros, Rosen, senecazm, sergsazan, VALERY, Veggr, wn129aa, wreak,
Dec 14 2019, 20:22:06 Pathogen - Ashes Of Eternity (2017)
неожиданно мощный альбом, хотя и с довольно грязным саундом
(2) Occultas, SaintVitus,
Nov 13 2019, 10:59:17 Evig Hat - Misphonia (2015)
reuploaded
Register
(2) Bunzlywotter, kim666,
Nov 10 2019, 08:09:22 Ignis Noctem - Internum Mortem (2018)
reuploaded
Register
(1) kim666,
Nov 7 2019, 13:56:12 Insision - Revealed And Worshipped (2004)
reuploaded
Register
(1) FUDEDOR,
Oct 31 2019, 08:57:20 Sombre Loki - Gylfaginning (2008)
reuploaded
Register
(1) satanist666,
Oct 29 2019, 12:58:42 Dyinise - Decompositions (2011)
reuploaded
Register
(1) METALHUNTER,
Oct 26 2019, 20:25:28 Hotbild - Tomhet (2018)


*Artist: Hotbild
*Album: Tomhet
*Year: 2018
*Genre: Black Metal/Crust
*Country: Sweden
*Format: mp3@VBR268kbps
*Size: 53MB

Tracklist:
1. Domedag (Intro) 01:09
2. Förvriden verklighet 02:39
3. Medan världen gick åt helvete 03:24
4. Hungrig trött och tärd 01:58
5. Förintad 03:34
6. I skuggan av livet 02:08
7. Låt mig aldrig vakna mer 02:06
8. Mitt labila jag 02:11
9. Förblindad av hat 02:44
10. I dödens väntrum 02:06
11. Tomhet 03:06
******************************
Total playing time: 27:05



[more=Extended info]Согласно информации из буклета, материал был записан зимой 2004-2005, но по различным причинам не был выпущен.

В 2018 выпущен Blackstar Productions в цифровом формате.
Ранее был в лоу и в недооформленном виде.

[/more]

[more=Technical info]
Input File: Hotbild - Tomhet - 02 Förvriden Verklighet.mp3
Channels : 2
Sample Rate : 44100
Precision : 16-bit
Duration : 00:02:39.35 = 7027159 samples = 11951 CDDA sectors
File Size : 5.40M
Bit Rate : 271k
Sample Encoding: MPEG audio (layer I, II or III)
Comments :
Title=Förvriden Verklighet
Artist=Hotbild
Album=Tomhet
Tracknumber=2
Year=2005

[/more]

Register
(16) 1968_janeart, abob, artscald, Asketto, chickenfucker, comradEnemy, infiltrator, Korpse, metala, Olethros, Ostinato, Rosen, templ, VALERY, varlam4, vasiljev_sergej,
Oct 24 2019, 13:00:30 Intimidating Mage - Plainsman [ep] (2018)
reuploaded
Register
(1) satanist666,
Oct 21 2019, 13:59:37 Rakitiko - La Profecía Pagana (2018)
reuploaded
Register
(1) cist,
Oct 21 2019, 12:01:28 Evig Hat - Waste Of Hate, Waste Of Flesh, Waste Of Death (2015)
reuploaded
Register
(2) kim666, wendigo,
Oct 21 2019, 09:04:29 Crusty Old Toad - Nefarious Occurrence (2015)
reuploaded
Register
(1) wendigo,

32 Pages V   1 2 3 > » 
- Lo-Fi Version Support form
Copyrights and abuse reports form
Time is now: 2nd April 2020 - 05:04:19