Welcome Guest ( Log In | Register )

История благодарностей участнику Razorbladeswaltz ::: Спасибо сказали: 1286 раз(а)
Дата поста: В теме: За сообщение: Спасибо сказали:
Nov 13 2018, 12:01:03 Skitchrist - Lamentations (2015)
reuploaded
Register
(1) satanist666,
Nov 12 2018, 10:15:07 Dawn Of Eternity - Reflections Ov Old Mirror's (2013)
reuploaded
Register
(2) kim666, varg-38ru,
Nov 11 2018, 13:56:38 Tristania - Rubicon (2010)
reuploaded
Register
(1) Aresson,
Nov 11 2018, 11:59:58 Derealized - Quintessence [demo] (2013)
reuploaded
Register
(1) kim666,
Nov 11 2018, 10:57:27 Otuq - Los Tres Dominios [demo] (2011)
reuploaded
Register
(2) kim666, thenecromancer,
Nov 11 2018, 09:58:51 Bloodmoon - Descent (2011)
reuploaded
Register
(1) kim666,
Nov 10 2018, 20:25:59 Thamuzifer - Oscura Sociedad Sacrílega (2012)
reuploaded
Register
(1) kim666,
Nov 10 2018, 16:21:37 Inhumation - Inhumation [ep] (2011)
reuploaded
Register
(1) satanist666,
Nov 8 2018, 14:58:23 Jute Gyte - Oviri (2017)
reuploaded
Register
(1) christopher_l,
Nov 8 2018, 13:56:40 Kain - Seele (2015)
reuploaded
Register
(1) varg-38ru,
Nov 8 2018, 10:44:39 Hazeroth - Charms Of Sin (2015)
reuploaded
Register
(1) kim666,
Nov 7 2018, 10:45:05 Feral - Forever Resonating In Blood (2017)
reuploaded
Register
(1) varg-38ru,
Nov 6 2018, 09:59:12 Quiar - Infamia Celestial (2018)
reuploaded
Register
(1) thenecromancer,
Nov 4 2018, 10:32:05 Denier - Thieves [ep] (2012)
reuploaded
Register
(1) varg-38ru,
Nov 4 2018, 07:03:35 Ceremonial Worship - Ceremonial Worship [ep] (2017)
mirror with correct tags
Register
(1) thenecromancer,
Nov 3 2018, 22:46:49 Slipknot - All Out Life [single] (2018)
ЦИТАТА(garmonbozia @ Nov 4 2018, 02:17:20) *
без шуток и сарказма, но вот йа люблю эту группу и очень сокрушаюсь по поводу этих десяти лет.

симметрично. поэтому рад даже тому, что Кори тут сопли с сахаром не разводил, забубенил разной степени агрессивности экстримом, и он тут ЗВУЧИТ. инструментальный звук же плосковат, а по муз материалу что-то типа саблиминала, не фонтан, но брызги есть, а на уберпесдец разряда Айовы/Слипнота уже даже не надеюсь.

видеоряд странноватый и не оставляющий никаких эмоций абсолютно.

З.Ы. про Мика Томпсона сказали, что поубирает чуть не всех гитарастов в бардачок, а мне кажется, что Рут-таки помастеровитее будет.
(1) Krosis,
Nov 1 2018, 11:58:17 Murrowind - Murrowind [ep] (2015)
reuploaded
Register
(1) kim666,
Nov 1 2018, 07:59:54 Ys - Vast (2014)
reuploaded
Register
(4) kim666, Ostinato, varg-38ru, wendigo,
Oct 30 2018, 11:00:03 Eneferens - The Inward Cold (2016)
reuploaded
Register
(1) Black Cat,
Oct 26 2018, 10:20:35 Agarwaen - Vrykolakas [demo] (2010)
reuploaded
Register
(2) dermarsoran, thenecromancer,
Oct 26 2018, 10:11:18 Full Of Hell - Savage [ep] (2009)


*Artist: Full Of Hell
*Album: Savage [ep]
*Year: 2009
*Genre: Sludge/Grindcore
*Country: United States
*Format: mp3@CBR192kbps
*Size: 16MB

Tracklist:
1. Intro 01:15
2. Black Hole 02:55
3. Routine 03:32
4. Savages 02:26
5. Killing Floor 01:26
******************************
Total playing time: 11:34



[more=Extended info]6TH JAN 2013 | 1 NOTE
It’s our very first release ever as a band. Completely different line-up. There was never a physical release, so you should be able to find it on the internet somewhere.[/more]

[more=Technical info]
Input File: 02. Black Hole.mp3
Channels : 2
Sample Rate : 48000
Precision : 16-bit
Duration : 00:02:54.51 = 8376432 samples ~ 13088.2 CDDA sectors
File Size : 4.27M
Bit Rate : 196k
Sample Encoding: MPEG audio (layer I, II or III)
Comments :
Title=Black Hole
Artist=Full of Hell
Album=Savage
Tracknumber=2/5
Year=2009
Genre=Hardcore Punk | Grindcore | Powerviolence | Sludge | Noise

[/more]

Register
(9) artscald, Hell_Is_Here, jpvalentim, marilin, Ostinato, Rosen, Tyrone, wtk.412, Герб,
Oct 23 2018, 22:40:55 Moonlight - Lucifer's Rising (2012)
reuploaded
Register
(1) varg-38ru,
Oct 19 2018, 13:28:36 Diamond Head - Four Cuts [ep] (1982)
reuploaded
Register
(1) Aresson,
Oct 19 2018, 13:26:41 Sombre Loki - In Lacrimae Ad Tenebris (2015)
reuploaded
Register
(1) kim666,
Oct 16 2018, 13:00:40 Vinterriket - Retrospective [best Of/compilation] (2006)
reuploaded
Register
(1) varg-38ru,

24 Pages V   1 2 3 > » 
- Lo-Fi Version Support form
Copyrights and abuse reports form
Time is now: 16th November 2018 - 02:32:27