Welcome Guest ( Log In | Register )

История благодарностей участнику HA7tur ::: Спасибо сказали: 23233 раз(а)
Дата поста: В теме: За сообщение: Спасибо сказали:
Oct 31 2019, 06:21:50 Midnight Odyssey - Biolume Part 1 - In Tartarean Chains (2019)
Как знал, как знал, только недавно переслушивал «The Forest Mourners» 1488.gif
(1) Evilded,
Oct 28 2019, 21:07:03 Новости Black-направления
Lurker of Chalice “Tellurian Slaked Furnace” Double LP Coming Soon

Cover - https://i.imgur.com/U7G6pmq.jpg

Т.н. выжимка из первых двух дэмок, первая из которых дрон-нойз-дарк эмбиент (фрагментами перекликается с Левиафановским "A Silhouette in Splinters") и даже мартиал-индастриал с речами дедушки по классике (в общем, всё как я люблю, переслушиваю периодически), ну а вторая дэмка — пре-продукция единственного альбома, который вышел в 2005м, но судя по описанию там не так много со второй будет.
Всё на 70 минут, скучно быть не должно. Хотя, наверное, должно, только так и задумывалось.

ЦИТАТА
(Description by J. Campbell)
Active from 2001-2005, the highly revered side project of Leviathan’s Jef Whitehead, Lurker of Chalice, is mostly known for the 2005 self-titled full-length. Prior to that album, however, Wrest recorded two CD-R demos under the Lurker of Chalice name, each of which was limited to approximately 50 copies or less and sold at a single record store in San Francisco, near where he was living at the time. Like the full-length, both demos were eponymous, though the first demo was identified only by the initials “L.O.C.” written in runes. While a few of the songs from the demo era bear indicia of black metal, the material from that period is generally far more experimental, defying any effort to be neatly categorized. For “Tellurian Slaked Forest,” Wrest has distilled the best material from the early period of the project and edited, collaged, and compiled it, weaving together something more coherent and album-like. In this way, there seems to be something of his current artistic sensibility projected onto these recordings from nearly two decades earlier. In keeping with the confusing taxonomy of the project, the tracks on this LP are unnamed. The album opens with a song previously called “Lurker of Chalice” on the 2002 demo but is untitled on this release. The song showcases the haunting minimalism of Lurker of Chalice as slow acoustic guitars revolve around one another, arpeggiated chords ringing out above percussive accents. With the second track, a more sinister energy emerges, advanced by the first and only appearance of Wrest’s seething vocals. Over the full, 70-minute duration of this album, the music, almost completely instrumental, expands and contracts, evolves and disintegrates. Delicate ambient passages and labyrinthine excursions give way to electronic dirges of lumbering percussion with guitar shimmering transcendent above a melancholic lake of atmospheric sound and cascading sheets of electronics dissolving into lush acoustic melodies. Only very rarely do heavy riffs emerge; compared with Wrest’s work in Leviathan, or even the Lurker of Chalice album, the metal elements are far less direct and overt. Instead, this album conjures a bleak, unsettling mood without resorting to the compositional trappings of black metal. The music, which strangely seems both intensely personal, yet also detached and cinematic, evokes a palpable sense of solitude—the disconsolate reckoning of the self in the absence of others. The release of “Tellurian Slaked Forest” marks the first time any of the Lurker of Chalice demo recordings have been reissued and also offers a substantial amount of previously unheard material.

Feb-March 2020
(5) Chasm, garmonbozia, infiltrator, nikolay81, Фо,
Oct 22 2019, 13:45:30 Various Artists - Morbid Tales! A Tribute to Celtic Frost [compilation] (2015)


*Artist: Various Artists
*Album: Morbid Tales! A Tribute to Celtic Frost [compilation]
*Year: 2015
*Genre: Black/Thrash/Death/Doom Metal
*Country: Many
*Format: mp3@CBR320kbps
*Size: 105MB

Tracklist:
1. Child Bite w/ Phil Anselmo - The Usurper 04:00
2. Persekutor - Procreation of the Wicked 04:05
3. Temple of Void - Os Abysmi Vel Daath 05:03
4. Acid Witch - Cherry Orchards 04:07
5. Municipal Waste - Nocturnal Fear 03:33
6. Hayward - Jewel Throne 04:28
7. Coffin's Slave - Dance Sleazy 03:14
8.Evoken - Dawn of Megiddo 07:16
9. Coffin's Slave - The Reaper (Hellhammer) 02:32
10. Black Anvil - Dethroned Emperor 05:01
******************************
Total playing time: 43:19




[more=Extended info]Надеюсь, что этот релиз не уйдёт просто сам по себе в лоу))
В общем, кавера на железобетонных классиков сразу нескольких жанров.[/more]

[more=Technical info]
Input File: 04 - Acid Witch - Cherry Orchards.mp3
Channels : 2
Sample Rate : 44100
Precision : 16-bit
Duration : 00:04:07.73 = 10924981 samples = 18579.9 CDDA sectors
File Size : 10.1M
Bit Rate : 325k
Sample Encoding: MPEG audio (layer I, II or III)
Comments :
Title=Cherry Orchards
Artist=Acid Witch
Album=Morbid Tales! A Tribute to Celtic Frost
Tracknumber=04
Year=2015

[/more]

Register
(30) artscald, as71, Brann, carcassss, dermarsoran, dulak, garml2, heinz88, Hell_Is_Here, kimkayoung, KKK1488, KVRT, lacrimoza, marilin, metala, multizwilling, pothead, robertho777, Rosen, SadistikSlayer, scorn33, sonicavocado, supremo, uk82, VALERY, vasiljev_sergej, Wail, Wolfera, wtk.412, Xron,
Oct 21 2019, 06:59:33 Cult Of Daath - Razor War [ep] (2004)


*Artist: Cult Of Daath
*Album: Razor War [ep]
*Year: 2004
*Genre: Black/Thrash/Speed Metal
*Country: United States
*Format: mp3@CBR320kbps
*Size: 23MB

Tracklist:
1. Poison Winds
2. Piercing the Thorax
******************************
Total playing time: 9:20

[more=Extended info]Странно, что именно этого релиза не было на форуме.
Один из незаметных БМ актов из штатов, редко что выпускают на данный момент. При написании музыку явно вдохновлялись ранними Bathory, Celtic Frost, Venom, Sodom, Beherit и etc. В принципе, всё что на стыке Black/Thrash/Speed или то что теперь принято называть Old School в том числе.[/more]

[more=Technical info]
Input File: 01 - Cult Of Daath - Poison Winds.mp3
Channels : 2
Sample Rate : 44100
Precision : 16-bit
Duration : 00:05:01.55 = 13298399 samples = 22616.3 CDDA sectors
File Size : 12.1M
Bit Rate : 321k
Sample Encoding: MPEG audio (layer I, II or III)
Comments :
Title=Poison Winds
Artist=Cult Of Daath
Album=Razor War
Tracknumber=01
Year=2004
Genre=Black Metal

[/more]

Register
(19) Ainar, artscald, Asketto, boby9052, FUDEDOR, Hell_Is_Here, infiltrator, Legacy100, Olethros, Orkkh, Rosen, sergsazan, skeletron215, smysl, stumpheavyrock, vasiljev_sergej, Wail, wgs73, Абигор,
Jun 28 2019, 21:01:20 Thom Yorke - Anima (2019)
ЦИТАТА(vosmidesijatye @ Jun 28 2019, 22:57:58) *
Это из Радиохэд. Так, вам на минуточку, напоминаю.


— Бэрримор, кто то воет на болотах?
— Рэйдиохэд, сэр
(3) Diflock, Ghostb, plfan93,
Jun 19 2019, 09:07:57 Новости Black-направления
ЦИТАТА(FullofHate @ May 14 2019, 21:43:37) *
[youtube]EG9Q5NRBYvM[/youtube]


Штааа? crazy.gif

Тут комменты были про то как Энтронд косплеил Мардук, в принципе, близко, да. Правда по стилистике подачи я бы сказал что больше даже Dark Funeral.
Но всё это с большой оговоркой - они чот даже по атмосфере пытались как-то разрулить.
Да млат, если бы я послушал это без привязки к названию банды, то подумал бы выключить на 14 секунде (хотя может быть на 88-ой).
Сегодня ты слушаешь Армооооорд Бестиал Хэээээл, а потом какое-то скучнодоксальное жужжание, с триггерными ударными, как тут давно было сказано, а-ля мужик в шлёпках бегает по линолеуму, ну вокал понятное дело, после карканий Lord Sabathan сейчас и не звучит никак. Я опечален, как в первый рабочий день после отпуска.
(6) Ainar, Alucarda, Beazth, DarkHorde, infiltrator, Paatddal,
Feb 25 2018, 14:00:26 Black Metal в лицах
ЦИТАТА(RUDACHUR @ 24th March 2017 - 23:21:26) *
Посмотрел фото Blazebirth Hall, а Владислав Третьяк(театр "шалом") с Sternatis продолжает что-ли !?


Вспомнил случай нцать летней давности. Картина, которая никак не связана с действующими лицами

Кабак с шишей и всякой восточной хаваниной

— Пора всех ставить под ружьё и гнать всех чёрных и кучерявых, да и депутатов не забыть, в любом случае победим, потому что попадём в вальгаллу!
— Харэ, не шуми так сильно.
Шёпотом другим: Парни, утихомирьте его, а то ща Бекзат придёт менять уголь и под замес попадёт
Этот шёпот слышит "диктатор".
— Да лан, Бекзат свой.
Всё происходящее слышит работник с узбекистана Бекзат, в лице он меняется как курс рубля в 98-м, молча подходит и меняет уголь в кальяне и затем исчезает.

Занавес.

ЦИТАТА(Moroth @ 25th March 2017 - 18:35:00) *
Sternatis жив, новый альбом, говоря языком кинопроизводства, находится в постпродакшене. Первый альбом будет перевупущен стараниями Луиса из Hammer of Damnation. Я исчез на 17 лет из видимости, назовем это, летаргией.


Где-то я это уже слышал, типа так:

"Von жив, новый альбом, говоря языком кинопроизводства, находится в постпродакшене. Первый альбом будет перевупущен стараниями Nuclear War Now! Я исчез на 20 лет из видимости, назовем это, летаргией."

Примерно так звучали слова некоего гражданина под ником "Venien".

Слишком много лирики, но суть вот в чём: а надо ли?
Не говорю, что выйдет говно, но большей процент таких возвращений скатываются в не эпическое гогно.
(1) Qliphoth,
Feb 25 2018, 12:42:53 Leviathan & Crawl - Leviathan/Crawl [split] (2018)
[youtube]2ENFNsVz0yg[/youtube]

пока не удалось словить духовности из-за бездуховности места, в котором сейчас нахожусь
(1) Chasm,
Feb 25 2018, 11:06:33 Dimmu Borgir - Interdimensional Summit [ep] (2018)
Три страницы обсуждений (какой из говёННых альбомов лучше) на 1,5 песни и с бонусным сборником из старых каверов, ыздец
(3) Ghostb, Kazoth, Qliphoth,
Feb 3 2017, 10:44:15 Новости Black-направления
ЦИТАТА(suseka @ 29th January 2017 - 17:26:24) *
Хорг, драммер Immortal, завершил запись ударных для нового альбома в знаменитой Abyss Studios с Питером Тагтреном


Зачем? Во славу сатаны Grim and Frostbitten Kingdoms, конечно же
(2) Antiscum, suseka,
Feb 1 2017, 05:55:16 Ploho - Бумажные Бомбы (2017)


*Artist: Ploho
*Album: Бумажные Бомбы
*Year: 2017
*Genre: Post-Punk/Shoegaze
*Country: Russian Federation
*Format: mp3@CBR320kbps
*Size: 70MB

Tracklist:
01. Прогулочный шаг 03:29
02. Хотеть тепла 04:24
03. Город устал 03:38
04. Сибсельмаш 02:32
05. Идти на дно 03:04
06. Гвозди 03:45
07. Нападение 02:49
08. Тот, кто гасит свет 03:37
******************************
Total playing time: 27:18

[more=Extended info]«Работа над этим альбомом началась очень давно, можно сказать, даже раньше, чем над предыдущим. Некоторые песни были написаны для альбома «Культура доминирования», но не вошли туда по разным причинам. Запись «Бумажных бомб» проходила на домашней студии в Новосибирске, поэтому и звук получился скорее в духе песен «1991», «Кресты» и т.д. Однако в целом, настроение альбома получилось слегка непривычным, более гитарным и живым, без давления драм машин и множества синтезаторов, как это было в нашей прошлой работе.»[/more]

[more=Technical info]
Input File: 02 - Ploho - Хотеть тепла.mp3
Channels : 2
Sample Rate : 44100
Precision : 16-bit
Duration : 00:04:24.75 = 11675607 samples = 19856.5 CDDA sectors
File Size : 10.7M
Bit Rate : 322k
Sample Encoding: MPEG audio (layer I, II or III)
Comments :
Title=Хотеть тепла
Artist=Ploho
Album=Бумажные бомбы
Tracknumber=02
Year=2017
Genre=Post-Punk/Shoegaze

[/more]

Register
(5) abob, AndreFrancis, Aresson, Dreamtale, nsmetalhead,
Jan 24 2017, 10:57:43 Hypothermia - Självdestruktivitet Född Av Monotona Tankegångar IV: Warakumbla [demo] (2014)


*Artist: Hypothermia
*Album: Självdestruktivitet Född Av Monotona Tankegångar IV: Warakumbla [demo]
*Year: 2014
*Genre: Depressive Post-Black Metal
*Country: Sweden
*Format: mp3@CBR320kbps
*Size: 55MB

Tracklist:
01. Självdestruktivitet född av monotona tankegångar IV: Warakumbla 22:06
******************************
Total playing time: 22:06



[more=Extended info]Старая эпопея, только в новом исполнении (а-ки крайний альбом).

Warakumbla is an ancient area surrounded by gravefields and stone monuments and the location where the song was composed over the course of several wanderings between the gateways to the dead.[/more]

[more=Technical info]
Input File: 01 - Hypothermia - Självdestruktivitet Född Av Monotona Tankegångar IV- Warakumbla.mp3
Channels : 2
Sample Rate : 44100
Precision : 16-bit
Duration : 00:22:06.05 = 58478981 samples = 99454 CDDA sectors
File Size : 53.3M
Bit Rate : 321k
Sample Encoding: MPEG audio (layer I, II or III)
Comments :
Title=Självdestruktivitet Född Av Monotona Tankegångar IV: Warakumbla
Artist=Hypothermia
Album=Självdestruktivitet Född Av Monotona Tankegångar IV: Warakumbla
Tracknumber=01
Year=2014

[/more]

Register
(20) 1968_janeart, beltane, Buregon, Evilded, kim666, lestllk, libertine, NachtWulf, Ostinato, Rosen, RUSP73, spiritualdecay666, stub888, thenecromancer, tont, varlam4, vasiljev_sergej, ZA670, Абигор, добрыйКот,
Jan 24 2017, 10:45:02 Hypothermia - Självdestruktivitet Född Av Monotona Tankegångar III [demo] (2014)


*Artist: Hypothermia
*Album: Självdestruktivitet Född Av Monotona Tankegångar III [demo]
*Year: 2014
*Genre: Depressive Black Metal
*Country: Sweden
*Format: mp3@CBR320kbps
*Size: 37MB

Tracklist:
1. Självdestruktivitet född av monotona tankegångar VI - Norderåsen 07:24
2. Självdestruktivitet född av monotona tankegångar VII - Döviken 07:39
******************************
Total playing time: 15:03



[more=Extended info]Старый топорный инструментальный материал, прямое продолжение предыдущих частей, вот как есть - шурши, импровизируй, издавай спустя почти 10 лет.

Improvisations recorded in Norderåsen and Döviken during the sessions of Veins, Köld & Rakbladsvalsen in 2005 and 2006 through Kim & Nachtzeit.[/more]

[more=Technical info]
Input File: 01 - Hypothermia - Självdestruktivitet Född Av Monotona Tankegångar VI - Norderåsen.mp3
Channels : 2
Sample Rate : 44100
Precision : 16-bit
Duration : 00:07:24.06 = 19582914 samples = 33304.3 CDDA sectors
File Size : 17.9M
Bit Rate : 322k
Sample Encoding: MPEG audio (layer I, II or III)
Comments :
Title=Självdestruktivitet Född Av Monotona Tankegångar VI - Norderåsen
Artist=Hypothermia
Album=Självdestruktivitet Född Av Monotona Tankegångar III
Tracknumber=01
Year=2014

[/more]

Register
(20) 1968_janeart, Branis, Evilded, Immortality, lestllk, libertine, NachtWulf, Ostinato, Rosen, RUSP73, Sjelekval, spiritualdecay666, stub888, thenecromancer, the_cleanser, tont, varlam4, vasiljev_sergej, ZA670, добрыйКот,
Oct 8 2016, 14:59:33 Новости Black-направления
ЦИТАТА(templ @ Sep 30 2016, 00:33:20) *
да и без кальдрада все понятно


надо было предупреждать, что развидеть это уже нельзя никак headcrab.png
пасаны, хочу прикоснуться к культу и пообщаться в контакте с BBH и Ulv'ом, для этого нужно одобрение асами и хендкрафтерами? crazy.gif

(2) Evilded, infiltrator,
Sep 16 2016, 11:24:59 Sedative - Sedative [demo] (2002)


*Artist: Sedative
*Album: Sedative [demo]
*Year: 2002
*Genre: Psychedelic Rock/Post-Punk
*Country: Russian Federation
*Format: mp3@CBR320kbps
*Size: 64MB

Tracklist:
01. Дом 04:02
02. Одно и тоже 03:38
03. То, что осталось 04:27
04. В свете зари 05:12
05. Вечное никогда 04:41
06. Невидимый взгляд 05:55
******************************
Total playing time: 27:55

[more=Extended info]Пост-панк проект русского музыканта, Романа Сидорова, создателя монопроекта Старуха Мха, а также на пару с Дмитрием Зубовым записавшего два альбома группы Der Golem.

С давних пор название коллектива везде писалось как Sedativ, после появления в сети обложки демо-записи, вроде как правильно "Sedative". Релиз прописываю как на обложке, изменение уже на ваше усмотрение.
С годом тоже не совсем понятно - два варианта 1999 и 2002. Оставил 2002, изменение так же на ваше усмотрение.

"Copy of the Sedative demo, with letter by Roman Sidorov. A thousand thanks to Mike Klein for getting in touch and providing these"

01. Дом - это на "2" на первой демо-записи из 10 трэков
02. Одно и тоже - это на "3" на первой демо-записи из 10 трэков
03. То, что осталось - это на "5" на первой демо-записи из 10 трэков
04. В свете зари - это на "10" на первой демо-записи из 10 трэков
05. Вечное никогда - это на "9" на первой демо-записи из 10 трэков
06. Невидимый взгляд - это на "4" на первой демо-записи из 10 трэков[/more]

[more=Technical info]
Input File: 03 - Sedativ - То, что осталось.mp3
Channels : 2
Sample Rate : 44100
Precision : 16-bit
Duration : 00:04:26.82 = 11766586 samples = 20011.2 CDDA sectors
File Size : 10.7M
Bit Rate : 321k
Sample Encoding: MPEG audio (layer I, II or III)
Comments :
Title=То, что осталось
Artist=Sedativ
Album=Sedativ
Tracknumber=03
Year=2002
Genre=Psychedelic Rock/Post-Punk

[/more]

Register
(5) garmonbozia, Mark_Jacobsen, plugawy, svndvst, Sylvi,
Feb 10 2016, 08:48:20 Новости Black-направления
ЦИТАТА(Evilded @ 7th January 2016 - 20:47:19) *
Ха, я почему то был уверен, что Лив ТФЛ фест это какой то галимый фэйк как пляски на костях честного имени xasthur-a 22.gif , аннет crazy.gif
если в этом году будет выпилен акустический сблев с чистоголосьем под вывеской легедарного депреССив бм проекта, то стыд и позор калифорнийскому мальчишке коннору, которому явно не хватает на дозняк, раз полез в такие дичи, решив сыграть на имени. несмотря на то, что первый акустический демо трек вполне себе ничего.


Я вот даже после этого видоса окно браузера хотел закрыть и дать *бака в ближайший сугроб, дабы начал кипеть

Слова дедушки Фо как никак лучше подойдут: а давайте его от3,14здим! ©

З.Ы.

ЦИТАТА(Evilded @ 7th January 2016 - 20:47:19) *
депреССив бм проекта


я уже чуть было не забыл как я раньше пропечатывал так буквы, отвык после заполнения документов всяких, после того как пару раз спалился, прописывая тех паспорта и прочую документацию 1488.gif
(2) Evilded, infiltrator,
Dec 31 2015, 18:59:07 French Black Metal
Не только Стефан Козак умер в 2015 году, был ещё один очень интересный музыкант — SelfM, который играл атмосферную и вдумчивую музыку в коллективах: Défaillance, Ethere, Ulfang, While Sad Spirits Around Me Stroll. Сырой и неотёсаный блэк с клавишными пассажами, который я по какой-то причине решил переслушать под Новый год, жаль, хороший был музыкант.
(3) Qliphoth, sethurius, stor,
Dec 29 2015, 11:36:32 Новости Thrash Metal направления
ЦИТАТА(TheThrasher @ 28th December 2015 - 13:10:06) *
Ну что за лого, что за облога?? 17.gif
vasilisk, они часом не заиграли там какой Funeral Doom/Black? smile4.gif


скорее старикан-рок заиграют опять

ЦИТАТА(suseka @ 7th December 2015 - 19:34:13) *
Тизер нового альбома Exumer - "The Raging Tides", выход которого намечен на 29 января на Metal Blade Records


пенсионер-трэш, кошмар какой-то
(2) Beazth, Emm Human,
Dec 29 2015, 09:09:33 Новости Black-направления
ЦИТАТА(DOD_FX86B @ 24th December 2015 - 17:52:23) *
Last friday and saturday we finished recording our 17th album.



[attachment=7407:14231725918987.jpg]
(3) Infidel, infiltrator, rom666,
Nov 13 2015, 19:11:39 Mass Burial - Soul's Necrosis (2015)
Альбом - жаришка. Быстрый, но увесистый внедорожник, источающий мертвечину со всех щелей. Катит так прямо в цель, чтобы эпично рухнуть с обрыва или чего похлеще - давануть куда-нибудь, чтобы с последствиями для окружающих crazy.gif
Соляки хорошие, даже моментами замысловатые, не просто запили и бросил, а тут даже какую-то атмосферу можно уловить.
Да, из минусов: хз на кой ляд бластбитация моментами проскакивает.

(4) Ash_1980, KVRT, samokot, vosmidesijatye,
Nov 13 2015, 18:34:02 Desecresy - Stoic Death (2015)
Не сказать, что фанатично, но альбом точно понравился: неторопливый ритм, с завываниями гитары на фоне - самое то. Даже, я бы сказал, материал вдумчивый, но с резаным/запиливающим звуком. Шикарно.


ЦИТАТА(vosmidesijatye @ 3rd November 2015 - 21:39:31) *
По сути, весь альбом - это одна мелодия, но как же она прекрасна.


я не заметил как альбом пошёл по второму кругу, что неплохо совсем
(1) vosmidesijatye,
Nov 12 2015, 21:58:23 Swallow The Sun - Songs from the North I, II & III (2015)
ЦИТАТА(aesteticvice @ 12th November 2015 - 07:32:12) *
Полное время альбома: 2:33:50


я думал, что Blood Geometry от Elysian Blaze это дохуа headcrab.png
(3) Metalass, Peikko, Tular,
Nov 10 2015, 20:51:01 Новости Black-направления
ЦИТАТА(Goatrex @ 10th November 2015 - 20:37:49) *
Не приходило в голову, что люди и не думают "оригинальничать", а хотят классическую облогу с Козлом?


мне вообще, в последнее время, ничего в голову не приходит, я завязал с мордобоем crazy.gif

классическая обложка с козлом 1488.gif

[attachment=7364:Venom___..._to_hell.jpg]

(2) Goatrex, infiltrator,
Nov 10 2015, 10:44:12 Новости Black-направления
ЦИТАТА(rom666 @ 10th November 2015 - 01:05:45) *
cover Chris Moyen


интересно, когда настанет момент и музыканты осознают : "Моеновское западло не делает оформугу оригинальным", извините
(2) Hostis, infiltrator,
Mar 15 2015, 19:00:50 Dommedagssalme - Domain (2015)
Пасаны ваще не заморачивались по поводу обложки
(2) Dantalian, Evilded,

97 Pages V   1 2 3 > » 
- Lo-Fi Version Support form
Copyrights and abuse reports form
Time is now: 18th November 2019 - 06:37:35