Welcome Guest ( Log In | Register )

История благодарностей участнику Lucifer ::: Спасибо сказали: 2321 раз(а)
Дата поста: В теме: За сообщение: Спасибо сказали:
Sep 17 2020, 13:07:00 Autumn Rain Melancholy - Два Крыла [single] (2020)


*Artist: Autumn Rain Melancholy
*Album: Два Крыла [single]
*Year: 2020
*Genre: Gothic Metal
*Country: Russian Federation
*Format: mp3@CBR320kbps
*Size: 11MB

Tracklist:
1. Два Крыла
******************************
Total playing time: 5:29

[more=Technical info]
Input File: 01 Два Крыла.mp3
Channels : 2
Sample Rate : 44100
Precision : 16-bit
Duration : 00:05:30.34 = 14568170 samples = 24775.8 CDDA sectors
File Size : 13.2M
Bit Rate : 320k
Sample Encoding: MPEG audio (layer I, II or III)
Comments :
Title=Два крыла
Artist=Autumn Rain Melancholy
Album=Два крыла (Single)
Tracknumber=01
Year=2020
Genre=Gothic Metal

[/more]

Register
(11) after21allD, Cartman223, chipsgott, fallen, Ice Gnoll, infiltrator, kluval, Olethros, Reverend, Rosen, Sanctus,
Sep 7 2020, 10:43:14 Equilibrium - One Folk [single] (2020)


*Artist: Equilibrium
*Album: One Folk [single]
*Year: 2020
*Genre: Folk Metal
*Country: Germany
*Format: mp3@CBR320kbps
*Size: 11MB

Tracklist:
1. One Folk
******************************
Total playing time: 4:37


[youtube]HFTD1pkncUs[/youtube]

[more=Technical info]
Input File: 01 One Folk.mp3
Channels : 2
Sample Rate : 44100
Precision : 16-bit
Duration : 00:04:37.49 = 12237353 samples = 20811.8 CDDA sectors
File Size : 11.1M
Bit Rate : 320k
Sample Encoding: MPEG audio (layer I, II or III)
Comments :
Title=One Folk
Artist=Equilibrium
Album=One Folk (Single)
Tracknumber=01
Year=2020
Genre=9

[/more]

Register
(13) Aresson, aviacademy, Bloodn Lord, Cartman223, chipsgott, gwar, infiltrator, Ludwig Hagen, Olethros, Reverend, Rosen, sergsazan, tt2008,
Aug 15 2020, 14:42:29 Insomnium - Heart Like A Grave (2019)
Metalass,
на вкус и цвет. Мне бонусы понравились поболее многих номерных треков. А в стиле Karelia 2049 и вовсе - полный альбом хотелось бы.
(1) Metalass,
Aug 10 2020, 15:03:22 Vimbulnatt - Simplicius Simplicissimus (2020)


*Artist: Vimbulnatt
*Album: Simplicius Simplicissimus
*Year: 2020
*Genre: Atmospheric Black Metal
*Country: Germany
*Format: mp3@CBR320kbps
*Size: 62MB

Tracklist:
1. Sero discursare est 03:08
2. Time for the Bells 02:39
3. Two Suns 02:38
4. Douze mois 02:54
5. Feind 02:19
6. Doppelgänger 03:48
7. Simplicius Simplicissimus 02:37
8. Spiders 03:37
9. Høst (feat. Seth de Groot) 03:08
10. Die ewige Nacht (Instrumental) 01:23
******************************
Total playing time: 28:11



[more=Technical info]
Input File: 10 Die ewige Nacht (Instrumental).mp3
Channels : 2
Sample Rate : 44100
Precision : 16-bit
Duration : 00:01:23.34 = 3675206 samples = 6250.35 CDDA sectors
File Size : 3.77M
Bit Rate : 362k
Sample Encoding: MPEG audio (layer I, II or III)
Comments :
Title=Die Ewige Nacht (Instrumental)
Artist=Vimbulnatt
Album=Simplicius Simplicissimus
Tracknumber=10
Year=2020

[/more]

Register
(30) 1968_janeart, AlexSmith, alikkon, azaghal, Bulldozzzzzzer, chickenfucker, craP_cillA, Daale, El_Chibo, gav-gafi, grimoir, HMHamster, infiltrator, kim666, Lukittaz, multizwilling, oldvarg, Olethros, randumbum, Rosen, Scuns, SilentNidhogg, sludge666, stub888, supremo, TeamatSE, VALERY, varlam4, vasiljev_sergej, wreak,
Aug 9 2020, 08:37:20 Лучший советчик МА - Часть 9 (Пауэр) - Тур 2, Рейтингование
Deze,
Agonizer, Ironware
(2) Deze, infiltrator,
Aug 9 2020, 06:54:13 Лучший советчик МА - Часть 9 (Пауэр) - Тур 2, Рейтингование
Альбомы на оценку:
1 Aevum - The Creation Of Power youtube
2 Agonizer - Birth/The End youtube
0 Arch Nemesis - Of Mind and Fantasy youtube
1 Arrayan Path - Ira Imperium youtube
0 Assailant - Wicked Dream youtube
0 Atlain - G.O.E. youtube
0 Axxios - Beneath The Blood Red Sky youtube
0 Boomerang - Sounds of Sirens youtube
2 Demoniac - The Fire and the Wind youtube
0 Demonlord - Only The Dead Are Safe
0 Divine Sin - Winterland youtube
1 Dragonia - Blood, Will and Soul youtube
0 Drakkar - When Lightning Strikes youtube
0 Dyslesia - Years Of Secret youtube
1 Final Chapter - The Wizard Queen youtube
2 Ironware - Break Out youtube
1 Kemilon - Twisted Storm
0 Kenziner - Timescape youtube
1 Majestic Vanguard - Beyond the Moon youtube
1 Masters Of Disguise - Back With A Vengeance youtube
0 Miquian - Tlaltecuhtli youtube
1 Not Fragile - Time to Wonder
2 Pegasus ?- The Epic Quest youtube
0 Power - Justice of Fire youtube
1 Power Tale - Урфин Джюс и его деревянные солдаты youtube
0 Satan's Host - By The Hands Of The Devil youtube
0 Screamer - Target: Earth youtube
0 Sencirow - Perception of Fear youtube
0 Skyward - Skyward
0 Starborn - The Dreaming City (EP) youtube
0 Stormhunter - An Eye for an I youtube
1 Stranger - The Bell youtube
2 Sunrise - Trust Your Soul youtube
0 The Reign Of Terror - Sacred Ground
2 Timeless Miracle - Into The Enchanted Chamber youtube
1 Yosh - 1991 (да! это так альбом называется!)
0 Zigoku Quartet - Konoyo No Jigoku Monogatari
(4) Daale, Emm Human, FunZombie, infiltrator,
Aug 6 2020, 13:21:12 Batushka - Raskol [ep] (2020)
А это чья из них группа? Бывшего барабанщика?
(2) infiltrator, Язва,
Jul 28 2020, 10:29:43 Печальный мелодэт
А печальный бруталдэт посоветуете?
(1) Mick Dundee,
Jul 19 2020, 14:20:13 Дажбогавы Унукі - Бітва Багоў (2020)


*Artist: Дажбогавы Унукі
*Album: Бітва Багоў
*Year: 2020
*Genre: Viking/Folk Metal
*Country: Belarus
*Format: mp3@CBR192kbps
*Size: 60MB

Tracklist:
01.Шлях у Асгард (Intro)
02.Вікінг Метал (Памяці Томаса Куортана "Bathory")
03.Крумкачы Одзіна
04.Бітва Багоў
05.Молат Тора
06.Хугін і Мунін
07.Одзін і Тор
08.Валькірыі
09.Вальхалла
10.Мельёнір (Instrumental)
11.Вікінгі
******************************
Total playing time: 45:14


Preview 2

[more=Technical info]
Input File: 02 - Вікінг Метал (Памяці Томаса Куортана - Bathory).mp3
Channels : 2
Sample Rate : 44100
Precision : 16-bit
Duration : 00:02:51.86 = 7579202 samples = 12889.8 CDDA sectors
File Size : 4.12M
Bit Rate : 192k
Sample Encoding: MPEG audio (layer I, II or III)
Comments :
Title=Вікінг Метал (Памяці Томаса Куортана "Bathory")
Artist=Дажбогавы Унукі
Album=Бітва Багоў
Tracknumber=02
Year=2020
Genre=9

[/more]

Register
(14) Aresson, chipsgott, csgmnk, djsema4, gwar, infiltrator, Lukittaz, Mogozoz, Olethros, randumbum, Rosen, tt2008, varlam4, Сварог Барг,
Jul 18 2020, 03:51:12 Ensiferum - Thalassic (2020)
Thalassic Bonus CD


1. Rum, Women, Victory (Demo)
2. Andromeda (Demo)
3. The Defence of the Sampo (Demo)
4. Axe of Judgement (Demo)
5. Heathen Horde (Demo)
6. One Man Army (Demo)
7. Warrior Without a War (Demo)
8. Cry for the Earth Bounds (Demo)
9. Two of Spades (Demo)
10. My Ancestor's Blood (Demo)
11. Descendants, Defiance, Domination (Demo)
12. Candour and Lies (Demo)


Register

(3) Femto, infiltrator, kimkayoung,
Jul 5 2020, 12:13:04 Mada Mitakoto No Nai Sekai - Yugen Monochrome [ep] (2019)


*Artist: Mada Mitakoto No Nai Sekai
*Album: Yugen Monochrome [ep]
*Year: 2019
*Genre: Power Metal
*Country: Japan
*Format: mp3@CBR320kbps
*Size: 68MB

Tracklist:
1. Break Away (fеat. Kugitan)
2. Ark
3. Escape (feat.Yuzukingdom)
4. Gokusaishoku no Utopia ~ 極彩色のユートピア
5. Get on the Tailwind
6. Inochi ni Kirawareteiru (feat. Matsushita) ~命に嫌われている feat.松下
******************************
Total playing time: 28:48



[more=Extended info]Original band name: まだ見たことのないセカイ
Original album title: 幽玄モノクローム[/more]

[more=Technical info]
Input File: 02 - Ark.mp3
Channels : 2
Sample Rate : 44100
Precision : 16-bit
Duration : 00:03:55.09 = 10367557 samples = 17631.9 CDDA sectors
File Size : 9.81M
Bit Rate : 334k
Sample Encoding: MPEG audio (layer I, II or III)
Comments :
Title=Ark
Artist=Mada Mitakoto No Nai Sekai
Album=Yugen Monochrome
Tracknumber=02
Year=2019
Genre=9

[/more]

Register
(11) aviacademy, boby9052, infiltrator, Lukittaz, Olethros, randumbum, Rosen, skinnyboo, wreak, YarrPirate, Сварог Барг,
Jun 28 2020, 14:45:16 Amorphis & Belial & Abhorrence - Day Of Darkness Festifall Part 2 [bootleg] (1991)

Register
(3) thenecromancer, varlam4, Wail,
Jun 26 2020, 11:04:06 Лучший советчик МА - Часть 9 (Пауэр) - Тур 1, Общий сбор
ЦИТАТА(Deze @ Jun 26 2020, 19:56:23) *
Нет.

Эх, такой альбомище отбраковал 6.gif
На, послушай и пусть тебе станет стыдно.
[youtube]4eIFbYMqbis[/youtube]
(2) Foneg, Фо,
Jun 17 2020, 15:40:52 Ощущается ли вам фолковость Аморфиса?
ЦИТАТА(garmonbozia @ 18th June 2020 - 00:38:05) *
живите спокойно.

Жизнь и спокойствие - понятия несовместимые.

Пользуясь случаем оставлю это здесь
[youtube]VpgRx_-EfhY[/youtube]
(1) plfan93,
Jun 17 2020, 15:30:09 Ощущается ли вам фолковость Аморфиса?
ЦИТАТА(Deze @ 18th June 2020 - 00:27:45) *
Хо-хо, и ведь это было в 2015 году, когда всё только-только начиналось!

Уже тогда МА напоминало кладбище, а сейчас так и вовсе не портал, а хохмы между гробокопателями.
(2) 6666666, Фо,
Jun 16 2020, 13:33:20 Лучшая песня в истории HELLOWEEN!
ЦИТАТА(lafuma @ 16th June 2020 - 06:35:41) *
Если сабж исполнял бы на немецком над ними смеялся весь цивилизованный мир.

С чего бы?


К сожалению Хелловина на немецком под рукой нет, но есть аналогичный Гамма Рей. И звучит превосходно.
[youtube]MT1tSkA4WXk[/youtube]
(1) BrutalHero,
Jun 13 2020, 13:53:33 Лучшая песня в истории HELLOWEEN!
Pink Bubbles Go Ape
Chameleon
Master Of The Rings
7 Sinners
Unarmed (Best Of 25th Anniversary)
(1) BrutalHero,
Jun 13 2020, 13:48:06 The Outsider - From Ancient Gods And Forbidden Books (2020)


*Artist: The Outsider
*Album: From Ancient Gods And Forbidden Books
*Year: 2020
*Genre: Symphonic Death Metal
*Country: Mexico
*Format: mp3@CBR320kbps
*Size: 152MB

Tracklist:
01. I Belong to the Stars
02. Bringers of the Apocalypse
03. Primordial Abyssal Chaos
04. The Wish That Became a Curse
05. Nine Worlds Down
06. The Headless Horror
07. 918
08. Suicide Is Progress
09. Beautiful
10. Prelude to the Downfall
11. Lost
12. The Divine Punishment
******************************
Total playing time: 1:06:34




[more=Technical info]
Input File: 07. 918.mp3
Channels : 2
Sample Rate : 44100
Precision : 16-bit
Duration : 00:01:53.22 = 4993178 samples = 8491.8 CDDA sectors
File Size : 4.67M
Bit Rate : 330k
Sample Encoding: MPEG audio (layer I, II or III)
Comments :
Title=918
Artist=The Outsider
Album=From Ancient Gods and Forbidden Books
Tracknumber=7
Year=2020-04-24
Genre=Symphonic Death Metal
Discnumber=1

[/more]

Register
(14) atavist, cist, csgmnk, infiltrator, jollo, Lukittaz, metala, Mogozoz, Olethros, Rosen, Shadechaser, TeamatSE, VALERY, Сварог Барг,
Jun 2 2020, 02:02:58 Новости направления MDM
Решили по стопам Сонаты Арктики пойти? Которые легким движением руки свой бодрый дебютник превратили в пластмассовое колыбельное говнище.
(2) Emm Human, MeatWolf,
May 6 2020, 09:51:45 Paradise Lost - Obsidian (2020)
Не услышал здесь обсуждаемых отсылок к Систерс оф Мерси, разве что считать таковыми вообще любые готик-роковые пассажи, что по-моему некорректно. Пойду лучше Мунспел 2015 переслушаю.
(1) Ghostb,
May 5 2020, 06:09:30 Wolves Den - Promo [demo] (2014)
Wolves Den - Promo (2014)
Register
(6) kim666, thenecromancer, varg-38ru, varlam4, Wail, Weltenfeind666,
Apr 30 2020, 10:48:48 Лучший советчик МА - Часть 7 (Фолк) - Тур 1, Общий сбор
Ох, какая вкусная тема чуть было не прошла мимо меня.

Очень сложно выбрать фаворитный альбом, фолко-викинго-паганное музло у меня в любимых, так что кандидатов прилично. Ну, остановлю свой выбор на единственном альбоме андеграундных колумбийцев. Даже не столько, чтобы обозначить своего любимчика, сколько чтобы познакомить с пластинкой тех, кто по каким-то причинам пролетел мимо, ибо весьма достойный фонотеки альбом с мезоамериканским колоритом.

Guahaihoque - The Return Of The Ancient Gods (2007)
(2) Arseniy, infiltrator,
Apr 24 2020, 09:49:40 Nightwish - Hvman. :||: Natvre. (2020)
ЦИТАТА(Black Cat @ 24th April 2020 - 06:54:59) *
Партии унылые. Но даже так, мне ее приятней слушать и чем Тарью, и чем Ользон.

Да. И да. Флор - это лучшее что случалось с Найтвиш со времен появления Марко. (Рекомендуется, разумеется, слушать свежие концертники, ибо именно там, а не в студийных записях, Найтвиш сейчас круче всего).
(1) Bloodn Lord,
Apr 3 2020, 12:21:37 Чудодейственные свойства гомеопатии, или Голосовалка за лучший альбом 2019 года, Тур 1
Insomnium - Heart like a Grave
Blood Stain Child - Amateras
Brymir - Wings of Fire
Sickle Of Dust - In The Wake Of The Night
Munarheim - Willens & frei
Finsterforst - Zerfall
Rhapsody of Fire - The Eighth Mountain
Gyze - Asian Chaos
Mgła - Age of Excuse
(2) Exorcist, infiltrator,
Apr 2 2020, 14:48:46 Covid-19 - We All Die (2020)
В мировой тур собрались? 5.gif https://coronavirus.turnedmetal.com/?utm_so...kpZF-t43ZDr7fFQ

(1) Deze,

35 Pages V   1 2 3 > » 
- Lo-Fi Version Support form
Copyrights and abuse reports form
Time is now: 25th September 2020 - 09:26:32