Welcome Guest ( Log In | Register )

История благодарностей участнику Lucifer ::: Спасибо сказали: 1777 раз(а)
Дата поста: В теме: За сообщение: Спасибо сказали:
Yesterday, 05:07:56 Royal Hunt - Land Of Broken Hearts (1992)
Rоyаl Нunt - Lаnd оf Brоkеn Hеаrts (Spесiаl Еditiоn 2018)

16 tracks, Remastered
Register
(1) Aresson,
Dec 27 2018, 15:03:52 Catharsis - Время Потерь [ep] (2018)
ЦИТАТА(Aresson @ Dec 27 2018, 23:58:44) *
это эпидемия

Лаптева.
(2) Ghostb, Tular,
Dec 25 2018, 09:33:10 Новости направления MDM
Mechina continues into their seventh continuous concept album "Telesterion". Slated to release in the Spring of 2019. More information and updates coming January 1st.

[youtube]Ro9ksjQIRfk[/youtube]
(2) mirotvorets, Old Vyaine,
Dec 20 2018, 02:55:20 Wintaar - Winter's Curse (2018)
ЦИТАТА(Incantatore @ 20th December 2018 - 02:39:25) *
Многостаночник? Ну и пускай, пусть в Австралии будет Азгорх, а в России Женя

Где-то в Москве заплакал один Сенмут. smile2.gif
(3) Dantalian, DarkHorde, HowlingSpirit,
Dec 20 2018, 02:53:26 Castle - The Stone Age (2000)
ЦИТАТА(Diflock @ 20th December 2018 - 08:56:03) *
Люблю ошибаться, но год вроде 1999

В разных источниках указана разная дата, но на кассете напечатано 2000, поэтому ее указал.
(1) Diflock,
Dec 18 2018, 16:46:22 Mechanical Poet (1) Borderline1991,
Dec 18 2018, 16:19:15 Mike Oldfield - Man On The Rocks (2014)


*Artist: Mike Oldfield
*Album: Man On The Rocks
*Year: 2014
*Genre: Folk/Progressive Rock
*Country: Bahamas
*Format: mp3@CBR320kbps
*Size: 136MB

Tracklist:
1. Sailing
2. Moonshine
3. Man On The Rocks
4. Castaway
5. Minutes
6. Dreaming In The Wind
7. Nuclear
8. Chariots
9. Following The Angels
10. Irene
11. I Give Myself Away (William McDowell cover)
******************************
Total playing time: 59:39

[more=Extended info]Mike Oldfield - Lead Guitar, Bass, Acoustic Guitar, Electric Guitar, Keyboards
Luke Spiller - Lead Vocals
Michael Thompson - Acoustic Guitar, Electric Guitar
Stephen Lipson - Acoustic Guitar, Electric Guitar
Lee Sklar - Bass
John Robinson - Drums
Matt Rollings - Piano, Organ

Подробная информация о песнях, задействованных музыкантах и интересных фактах об альбоме Man On The Rocks: <br /http://mike-oldfield.ru/man-on-the-rocks.html[/more]

[more=Technical info]
Input File: 10 - Irene.mp3
Channels : 2
Sample Rate : 44100
Precision : 16-bit
Duration : 00:03:59.72 = 10571476 samples = 17978.7 CDDA sectors
File Size : 9.69M
Bit Rate : 323k
Sample Encoding: MPEG audio (layer I, II or III)
Comments :
Title=Irene
Artist=Mike Oldfield
Album=Man On The Rocks
Tracknumber=10/11
Year=2014
Genre=Rock

[/more]

Register


Register
(4) A.L.Rapsod, cancer1974, Cartman223, Olethros,
Dec 18 2018, 16:09:56 Mike Oldfield - Return To Ommadawn (2017)
Много интересной информации об альбоме:
http://mike-oldfield.ru/return-to-ommadawn.html

ЦИТАТА(Ghostb @ 18th December 2018 - 23:01:53) *
Обложка нравится тоже.

ЦИТАТА(Mike Oldfield)
Обложка альбома пришлась в самый раз. Под впечатлением от сериала "Игра престолов", я попросил свой лейбл в качестве обложки сделать что-нибудь эпичное на снегу. Они предложили потрясающий рисунок.
(1) Ghostb,
Dec 18 2018, 15:39:10 Mike Oldfield - Return To Ommadawn (2017)
ЦИТАТА(Ghostb @ 18th December 2018 - 23:01:53) *
Альбом неплох, удивлен, что только сейчас выложили.

Вы попробуйте поискать альбомы Олдфилда на металарее, наверное будете удивлены. 1488.gif

А выложил этот альбом только сейчас, потому что только сегодня сам с ним ознакомился. Вспомнил о проекте, погуглил, было ли что-то новое от него в последнее время и вуаля - целый альбом оказывается проглядел. Вот что бывает, когда за музыкальными новинками только на метал порталах следишь. 1488.gif
(1) Ghostb,
Dec 18 2018, 15:30:21 Castle - The Stone Age (2000)


*Artist: Castle
*Album: The Stone Age
*Year: 2000
*Genre: Folk/Hard Rock
*Country: Russian Federation
*Format: mp3@ABR256kbps
*Size: 95MB

Tracklist:
1. She Said
2. Fall 2 Run
3. Old Bog
4. Early Morning
5. Time, Wasted Time
6. Walkin' 4 The Rain
7. Starngers Of 17
8. W.U.W.H.
9. Foggy Dew
10. I Wanna Hold On
11. Gallowtree
12. Stay 4ever
13. Henry My Son
14. Ice Fallin'
15. Dicey Riley
16. Fall To Run (Remix)
******************************
Total playing time: 53:16

[more=Extended info]ex-ADOLF CASTLE[/more]

[more=Technical info]
Input File: 01-She Said.mp3
Channels : 2
Sample Rate : 44100
Precision : 16-bit
Duration : 00:03:08.67 = 8320171 samples = 14150 CDDA sectors
File Size : 6.04M
Bit Rate : 256k
Sample Encoding: MPEG audio (layer I, II or III)
Comments :
Title=She Said
Artist=Castle
Album=The Stone Age
Tracknumber=1
Year=2000
Genre=Unknown

[/more]

Register
(5) A.L.Rapsod, Diflock, gwar, Olethros, v.v.m,
Dec 18 2018, 15:11:01 Archontes - Holy Battle Has Begun [demo] (1995)


*Artist: Archontes
*Album: Holy Battle Has Begun [demo]
*Year: 1995
*Genre: Power Metal
*Country: Russian Federation
*Format: mp3@CBR320kbps
*Size: 21MB

Tracklist:
1. Holy Battle Has Begun
2. ...And Every Time
******************************
Total playing time: 9:22

[more=Extended info]Состав:
Андрей «Архонт» Федоренко — вокал, клавиши
Роман Зоркальцев - гитара
Сергей Захаров - бас (Король и Шут)
Алексей Быков - барабаны (экс-Железный Поток, Коррозия Металла, Монгол Шуудан, The Arrow, Hunters)

В 1995 году группа записала второе демо «Holy Battle has Begun». Демо содержало 2 песни и предназначалось специально для Германии. Демо получило хорошую оценку от музыкантов Gamma Ray. Официально фонограмма не вышла и вскоре из-за неких внутренних конфликтов команда распалась. В 1997 году Андрей Федоренко реанимировал группу в обновленном составе для записи дебютного альбома. [/more]

[more=Technical info]
Input File: 02 - And Every Time.mp3
Channels : 2
Sample Rate : 44100
Precision : 16-bit
Duration : 00:04:08.96 = 10979268 samples = 18672.2 CDDA sectors
File Size : 9.96M
Bit Rate : 320k
Sample Encoding: MPEG audio (layer I, II or III)
Comments :
Title=...And Every Time
Artist=Archontes
Album=Holy Battle Has Begun [demo]
Tracknumber=02
Year=1996
Genre=power metal

[/more]

Register
(5) Mogozoz, Olethros, Rosen, sabbracadabra, varlam4,
Dec 18 2018, 14:56:42 Distant Sun - Seagull Named Jon [single] (2017)


*Artist: Distant Sun
*Album: Seagull Named Jon [single]
*Year: 2017
*Genre: Thrash/Power Metal
*Country: Russian Federation
*Format: mp3@CBR320kbps
*Size: 11MB

Tracklist:
1. Seagull Named Jon
******************************
Total playing time: 4:41

[more=Extended info]Alexey Markov - Guitars, Vocals (Starsoup, ex-Citadel, ex-Shadow Host)
Artem Molodtsov - Bass, Guitars (ex-Shadow Host)
Erland Sivolapov - Drums (Shadow Host, ex-W. Angel's Conquest)[/more]

[more=Technical info]
Input File: Distant Sun - Seagull Named Jon (lyric video).mp3
Channels : 2
Sample Rate : 48000
Precision : 16-bit
Duration : 00:04:41.06 = 13491072 samples ~ 21079.8 CDDA sectors
File Size : 11.2M
Bit Rate : 320k
Sample Encoding: MPEG audio (layer I, II or III)
Comments :
Title=Seagull Named Jon
Artist=Distant Sun
Album=Seagull Named Jon
Year=2017

[/more]

Register
(4) artscald, boby9052, gwar, Rosen,
Dec 18 2018, 14:43:31 Last Fighter - ★ Neon Children (2017)


*Artist: Last Fighter
*Album: ★ Neon Children
*Year: 2017
*Genre: Synthwave/Industrial Rock
*Country: Russian Federation
*Format: mp3@CBR320kbps
*Size: 105MB

Tracklist:
1. Zero Hour
2. Morlock
3. Awake and Unite
4. Oasis
5. Neon Wings
6. Today
7. Battle Cry
8. Naught
9. Their Names
10. Titans
******************************
Total playing time: 49:55



[more=Extended info]Состав:

Лекс Плотников (Mechanical Poet) - все инструменты и вокал[/more]

[more=Technical info]
Input File: 10. Titans.mp3
Channels : 2
Sample Rate : 44100
Precision : 16-bit
Duration : 00:05:38.28 = 14918192 samples = 25371.1 CDDA sectors
File Size : 13.6M
Bit Rate : 321k
Sample Encoding: MPEG audio (layer I, II or III)
Comments :
Title=Titans
Artist=Last Fighter
Album=★ Neon Children
Tracknumber=10
Year=2017
Genre=17
Discnumber=1

[/more]

Register
(2) A.L.Rapsod, gwar,
Dec 18 2018, 14:39:15 Mechanical Poet - Atomic Halo [demo] (2010)


*Artist: Mechanical Poet
*Album: Atomic Halo [demo]
*Year: 2010
*Genre: Instrumental Industrial/Progressive Metal
*Country: Russian Federation
*Format: mp3@CBR320kbps
*Size: 132MB

Tracklist:
1. Binary Bible
2. MegaDystopia
3. Monogod
4. Nitrokey
5. Pixel Thieves
6. Quark Fuel
7. Robonoire
8. Synchronius
9. Technogenica
10. The Glitch
11. Atomic Halo
******************************
Total playing time: 59:55



[more=Extended info]Instrumental demo composed and recorded in 2010
Found and restored in 2017

Состав:
Лекс Плотников - все инструменты[/more]

[more=Technical info]
Input File: 06 - Quark Fuel.mp3
Channels : 2
Sample Rate : 44100
Precision : 16-bit
Duration : 00:03:14.39 = 8572643 samples = 14579.3 CDDA sectors
File Size : 7.78M
Bit Rate : 320k
Sample Encoding: MPEG audio (layer I, II or III)
Comments :
Title=Quark Fuel
Artist=Mechanical Poet
Album=Atomic Halo (Demo, 2010)
Tracknumber=06
Year=2017
Genre=Electronic/Progressive Metal

[/more]

Register
(2) gwar, Olethros,
Dec 18 2018, 09:24:04 Mike Oldfield - Return To Ommadawn (2017)
Penetralia,
сейчас он там живет, поэтому так и указал. А в принципе какая разница? hmm.gif Олдфилд есть Олдфилд, чем к оформлению придираться, лучше музыку слушайте, альбом очень хорош.
(3) Ghostb, Penetralia, troll_swamp,
Dec 18 2018, 04:16:37 Mike Oldfield - Return To Ommadawn (2017)


*Artist: Mike Oldfield
*Album: Return To Ommadawn
*Year: 2017
*Genre: Instrumental/Folk Progressive Rock
*Country: Bahamas
*Format: mp3@CBR320kbps
*Size: 96MB

Tracklist:
1. Return To Ommadawn Pt. I (21:10)
2. Return To Ommadawn Pt. II (20:57)
******************************
Total playing time: 42:07

[more=Extended info]https://mikeoldfieldofficial.com/ <br /

С 2009 года Майк Олдфилд живёт на Багамских островах, куда он переехал из Мальорки.

Mike Oldfield - All Instruments

Stringed instruments:

Acoustic steel guitar
Flamenco guitar
Bass guitar
Acoustic bass guitar
Electric guitars
Fender Telecaster
Fender Mark Knopfler Signature Stratocaster
PRS Signature
Mandolins
Banjo
Ukulele
Celtic harp

Keyboards:

Vox Continental organ
Hammond organ
Farfisa organ
Mellotron
Solina
Clavioline
Piano

Percussion:

Bodhran
African table drums
Glockenspiel

Other:

Penny whistles in B?, C, D, E?, F and G
Vocal effects derived from the original Ommadawn

Amplifiers:

Mesa Boogie
Fender Twin Reverb
[/more]


[more=Technical info]
Input File: 02. Return to Ommadawn, Pt. II.mp3
Channels : 2
Sample Rate : 44100
Precision : 16-bit
Duration : 00:20:57.37 = 55450105 samples = 94302.9 CDDA sectors
File Size : 50.3M
Bit Rate : 320k
Sample Encoding: MPEG audio (layer I, II or III)
Comments :
Title=Return to Ommadawn, Pt. II
Artist=Mike Oldfield
Album=Return to Ommadawn
Tracknumber=2/2
Year=2017
Genre=Rock
Discnumber=1/1

[/more]

Register
(9) A.L.Rapsod, cancer1974, Ghostb, krotovich, max_stalingradsky, Ostinato, stone88, troll_swamp, zoog,
Dec 14 2018, 14:48:04 Retriem - As Long As Life [ep] (2018)
ЦИТАТА(Foneg @ 14th December 2018 - 23:22:40) *
Хеви б из тега убрать - тут павер камелотоподобный

Ок, пофиксил. smile1.gif
(1) zauber1,
Dec 12 2018, 14:41:02 Retriem - As Long As Life [ep] (2018)


*Artist: Retriem
*Album: As Long As Life [ep]
*Year: 2018
*Genre: Kamelotopodobny Power Metal
*Country: Russian Federation
*Format: mp3@CBR320kbps
*Size: 49MB

Tracklist:
1. As Long As Life
2. My Enemy
3. Lost In The Shadows
4. A Sorrow That Never Ends
******************************
Total playing time: 21:06

[more=Extended info]Илья Коровкин — вокал (ex-Маврин, E-terra, ex-DeadXheaD, ex-Династия)
Иван Кузнецов — гитара (Karma, ex-Cross Age)
Руслан Мермович — гитара (Karma, ex-Cross Age)
Василий Богданов— бас (Servantes, ex-Faders, ex-Sentinel)
Александр Овчинников — ударные (ex-Арктида)[/more]

[more=Technical info]
Input File: 04 A Sorrow That Never Ends.mp3
Channels : 2
Sample Rate : 44100
Precision : 16-bit
Duration : 00:04:28.84 = 11856020 samples = 20163.3 CDDA sectors
File Size : 10.8M
Bit Rate : 320k
Sample Encoding: MPEG audio (layer I, II or III)
Comments :
Title=A Sorrow That Never Ends
Artist=Retriem
Album=As Long As Life
Tracknumber=04
Year=2018
Genre=Metal

[/more]

Register
(4) artscald, Mogozoz, Olethros, Rosen,
Dec 12 2018, 04:06:52 Kingston Wall - I (1992)
Напомню, кстати, что Amorphis в былые дни закаверили одну из песен Kingston Wall.
ЦИТАТА(Lucifer @ 8th December 2018 - 12:36:54) *
7. And I Hear You Call

[youtube]te48qhrIXmM[/youtube]




(1) Ghostb,
Dec 9 2018, 07:33:35 SIG:AR:TYR - The Stranger [demo] (2003)


CD-Rip / mp3 320 kbps / 65 mb
Register

(4) fabriziomagno, Ostinato, thenecromancer, wendigo,
Dec 9 2018, 06:46:31 Ustad Band - Freewild (2018)


*Artist: Ustad Band
*Album: Freewild
*Year: 2018
*Genre: Oriental/Progressive Rock
*Country: Brazil
*Format: mp3@CBR320kbps
*Size: 119MB

Tracklist:
1. Kya Bhat He Ustad
2. Muito Prazer
3. Epic Mantra
4. Dopamine
5. Action Rush
6. Freewild
7. O Mago Brasileiro
8. Brain Storm
9. Adrenalina Jam
******************************
Total playing time: 55:47


ЯндексМузыка

[more=Extended info]Fusion Metal with elements World Music, Progressive, Electronic, Psychedelic Rock. (c) store.cdbaby.com/cd/ustadband

Lucas Khan - Guitars, Tablas, Synth, Voice
Fellipe Roso - Drums, Percussion
Isaac Silva - Bass, Synth, Voice
Oscar Jayme - Percussao[/more]

[more=Technical info]
Input File: 02. Muito Prazer.mp3
Channels : 2
Sample Rate : 44100
Precision : 16-bit
Duration : 00:03:52.09 = 10235037 samples = 17406.5 CDDA sectors
File Size : 9.60M
Bit Rate : 331k
Sample Encoding: MPEG audio (layer I, II or III)
Comments :
Title=Muito Prazer
Artist=Ustad Band
Album=Freewild
Tracknumber=2
Year=2018
Genre=Progressive Metal
Discnumber=1

[/more]

Register
(4) Diflock, dimitriusk, KLOP, tOmV,
Dec 9 2018, 06:15:50 Kingston Wall - II (1993)


*Artist: Kingston Wall
*Album: II
*Year: 1993
*Genre: Psychedelic/Progressive Rock
*Country: Finland
*Format: mp3@CBR320kbps
*Size: 143MB

Tracklist:
1. We Cannot Move
2. Istwan
3. Could It Be So?
4. And It's All Happening
5. Love Tonight
6. Two Of A Kind
7. I Feel Love
8. Shine On Me
9. You
10. Palékastro
******************************
Total playing time: 1:10:10

[more=Extended info]Petri Walli - Guitar, Lead Vocal
Jukka Jylli - Bass, Backing Vocals
Sami Kuoppamäki - Drums, Percussion[/more]

[more=Technical info]
Input File: 02 Istwan .mp3
Channels : 2
Sample Rate : 44100
Precision : 16-bit
Duration : 00:04:01.65 = 10656721 samples = 18123.7 CDDA sectors
File Size : 9.67M
Bit Rate : 320k
Sample Encoding: MPEG audio (layer I, II or III)
Comments :
Title=Istwan
Artist=Kingston Wall
Album=II
Tracknumber=02
Year=1993

[/more]

Register
(3) Buregon, marilin, Old Vyaine,
Dec 9 2018, 06:11:51 Kingston Wall - III (Tri-Logy) (1994)


*Artist: Kingston Wall
*Album: III (Tri-Logy)
*Year: 1994
*Genre: Psychedelic/Progressive Rock
*Country: Finland
*Format: mp3@CBR320kbps
*Size: 163MB

Tracklist:
1. Another Piece Of Cake
2. Welcome To The Mirrorland
3. I'm The King, I'm The Sun
4. The Key: Will
5. Take You To Sweet Harmony
6. Get Rid Of Your Fears
7. When Something Old Dies
8. Alt - Land - Is
9. Party Goes On
10. Stüldt Håjt
11. For All Mankind
12. Time
13. The Real Thing
******************************
Total playing time: 1:07:11

[more=Extended info]Petri Walli - Guitar, Lead Vocal
Jukka Jylli - Bass, Backing Vocals
Sami Kuoppamäki - Drums, Percussion

Третий и последний альбом легендарной финской группы.[/more]

[more=Technical info]
Input File: 04 The Key- Will .mp3
Channels : 2
Sample Rate : 44100
Precision : 16-bit
Duration : 00:01:07.74 = 2987422 samples = 5080.65 CDDA sectors
File Size : 2.71M
Bit Rate : 320k
Sample Encoding: MPEG audio (layer I, II or III)
Comments :
Title=The Key: Will
Artist=Kingston Wall
Album=III - Tri-Logy
Tracknumber=04
Year=1994
Genre=Progressive Rock

[/more]

Register
(4) Buregon, marilin, Old Vyaine, Olethros,
Dec 8 2018, 10:50:46 Tri State Corner - Home (2014)


*Artist: Tri State Corner
*Album: Home
*Year: 2014
*Genre: Progressive Rock/Folk Rock
*Country: Germany
*Format: mp3@CBR320kbps
*Size: 92MB

Tracklist:
1. Intro
2. The Historie Goes On
3. Faster
4. Free Prison
5. Mother Earth
6. Bigger Than You
7. Kapia Stigmi
8. My Own World
9. One Day
10. Beside You
11. Déjà Vu
12. Home
******************************
Total playing time: 39:29

[more=Extended info]Vassilios "Lucky" Maniatopoulos - vocal, darbuka (RAGE)
Ioannis "Janni" Maniatopoulos - bouzouki
Christoph "Brat" Tkocz - guitar
Markuz Berger - bass
Christos Efthimiadis - drums (ex-RAGE, REFUGE)[/more]

[more=Technical info]
Input File: 01 - Intro.mp3
Channels : 2
Sample Rate : 44100
Precision : 16-bit
Duration : 00:00:58.26 = 2569222 samples = 4369.43 CDDA sectors
File Size : 3.22M
Bit Rate : 442k
Sample Encoding: MPEG audio (layer I, II or III)
Comments :
Title=Intro
Artist=Tri State Corner
Album=Home
Tracknumber=1/12
Year=2014

[/more]

Register
(2) dk201x, gwar,
Dec 8 2018, 09:34:04 Kingston Wall - I (1992)
Та самая группа, которая вдохновила Amorphis на заигрывания с прогом и фолковыми мотивами. Кто знает как бы сложилась судьба группы, если бы во время работы над дебютником им не принесли кассету "Kingston Wall - I".

Далее выдержка из официальной книги про Amorphis:

ЦИТАТА
Друг Койвусаари Юсси «Няккис» Ояла навестил его в Стокгольме и привёз с собой недавно вышедший дебютный альбом под названием I (1992) финского коллектива Kingston Wall, игравшего в жанре психодел и прогрессивный рок. На даче у ребят был переносной магнитофон, они вынесли его во двор, поставили кассету с альбомом и нажали play. Никто из них раньше не слушал эту группу. Альбом, сделанный в лучших традициях старой школы, впечатлил всех: там были и восточные мотивы, и что-то из фолка, и виртуозная игра – музыкальность Kingston Wall била через край. Он произвёл такое сильное впечатление, что его влияние до сих пор можно заметить в музыке Amorphis. Других кассет на том магнитофоне больше не слушали.

Когда полторы недели записи и микширования остались позади, Amorphis вернулись в Финляндию на том же пароме Viking Line. С собой они везли ещё не прошедший мастеринг, но готовый The Karelian Isthmus. Уже тогда группа принялась планировать свой следующий альбом. Впечатления от Kingston Wall увели их музыкальные вкусы в сторону от классического дэт-метала, теперь их интересовал прогрессив-рок с элементами народной музыки, вроде Wigwam, Pekka Pohjola и Piirpauke.
ЦИТАТА
Элементы фолка слышны уже на The Karelian Isthmus, в интро Karelia, которое было записано последним. Эта мелодия органично вписалась бы в любой из поздних альбомов Amorphis. Музыканты подумали: раз группы 70-х соединяли народную музыку с попсой, почему бы им не соединить её с металом? Тогда же появилась идея пойти дальше: взять тексты для песен из финского народного эпоса – Калевалы, составленной Элиасом Лённротом в 1849 году.
(3) Ghostb, Old Vyaine, SyncestrA,

30 Pages V   1 2 3 > » 
- Lo-Fi Version Support form
Copyrights and abuse reports form
Time is now: 16th January 2019 - 05:30:22