Welcome Guest ( Log In | Register )

История благодарностей участнику Lucifer ::: Спасибо сказали: 1892 раз(а)
Дата поста: В теме: За сообщение: Спасибо сказали:
May 19 2019, 03:14:15 Океан Мессиобожателей на Невском, или Голосовалка за лучший альбом 2018 года, Плэй-офф
Amorphis

Rivers Of Nihil
(1) vam1972,
May 7 2019, 02:32:29 Океан Мессиобожателей на Невском, или Голосовалка за лучший альбом 2018 года, Плэй-офф
Уфф, добил свой список наконец то. redp.gif
(1) Deze,
May 3 2019, 03:18:01 Munarheim - Willens & Frei (2019)
Кстати, годный клип.

[youtube]5YMjnyK9AuE[/youtube]
(1) ironyserg,
May 2 2019, 16:16:44 Munarheim - Willens & Frei (2019)
Ждал альбом, спасибо. Эпично-симфоничная красота на радость поклонникам Equilibrium. 20.gif
Кстати: Vergebung (feat. Robert "Robse" Dahn) smile1.gif

Для тех, кому нужен только альбом, без английской перепевки и инструментала.
Register
(7) andeimon, dagger666, Druidir, nirth, Old Vyaine, RUDACHUR, Victim of fate,
Apr 23 2019, 13:13:07 Новости направления MDM
Blood Stain Child "Amateras"

1. New Space Order
2. Del-Sol 1.02
3. Earth
4. Eastern Gravity
5. √BSC
6. Love Inpulse
7. Luminus Infelno
8. 8Bit Blackhole
9. Lost Humanity
10. 3+6+9
11. 皇 (The Emperor)
12. Cha-La Head Cha-La (Dragon Ball Z Op Cover)

Релиз 3 июля.
(2) Kaphiel, MeatWolf,
Apr 17 2019, 10:15:58 Laptev's Epidemia - Затерянный Храм Энии (2018)
ЦИТАТА(cesar @ 17th April 2019 - 19:07:25) *
но где у остальных, кто с ним имел несчастье связаться были уши?

Есть мнение что остальные участвовали ради прикола и хайпа (а некоторые, вроде Булгакова, еще и копеечку получили). Единственный минус для всех этих товарищей, что участие в ёпере маэстро Лаптеффа автоматически закрывает возможность какого-либо сотрудничества в будущем с самой Эпидемией.

ЦИТАТА(cesar @ 17th April 2019 - 19:12:29) *
Сам Лапоток говорит, что он воссоздал связку Боров-Костыль-Ящер и напыщенно при этом тужится (как всегда и везде, тащемта). Я хз, типа директора группы он сейчас у них...

Уже не директор. Недавно прикарманил гонорар то ли Борова, то ли всей группы, за что был изгнан ссаным веником.
(1) cesar,
Apr 12 2019, 07:51:42 Synthapex - Gone This Night [single] (2019)


*Artist: Synthapex
*Album: Gone This Night [single]
*Year: 2019
*Genre: Synthwave/Retrowave
*Country: Russian Federation
*Format: mp3@CBR320kbps
*Size: 10MB

Tracklist:
1. Gone This Night
******************************
Total playing time: 4:34

[more=Extended info]Ретровейв из Владивостока.[/more]

[more=Technical info]
Input File: Synthapex - Gone This Night.mp3
Channels : 2
Sample Rate : 44100
Precision : 16-bit
Duration : 00:04:34.46 = 12103554 samples = 20584.3 CDDA sectors
File Size : 11.1M
Bit Rate : 325k
Sample Encoding: MPEG audio (layer I, II or III)
Comments :
Title=Gone This Night
Artist=Synthapex
Album=Gone This Night
Year=2019

[/more]

Register
(3) Diflock, gwar, Ludwig Hagen,
Apr 10 2019, 06:01:24 Therion - Live @ Izvestiya Hall, Moscow, Russia [bootleg] (2014)


*Artist: Therion
*Album: Live @ Izvestiya Hall, Moscow, Russia [bootleg]
*Year: 2014
*Genre: Symphonic Metal
*Country: Sweden
*Format: mp3@CBR320kbps
*Size: 277MB

Tracklist:
01 Also sprach Zarathustra (Einleitung)
02 National Anthem of Russia
03 Sitra Ahra
04 Wine of Aluqah
05 Cults of the Shadow
06 Typhon (feat. Masha Scream from Arkona)
07 Raven of Dispersion
08 Hellequin
09 Seven Secrets of the Sphinx
10 Invocation of Naamah
11 Schwarzalbenheim
12 The Beauty in Black
13 Asgard
14 Muspelheim
15 Son of the Sun
16 Lemuria
17 End of the Dynasty
18 Who's Your God?
19 Flesh of the Gods
20 Ginnungagap
21 The Perennial Sophia
22 Son of the Staves of Time
23 The Rise of Sodom and Gomorrah (Encore)
24 To Mega Therion (Encore)
25 The Blood of Kingu (Encore 2)
******************************
Total playing time: 2:06:17

[more=Extended info]Date: October 14th, 2014
Location: Moscow, Russia
Venue: Izvestiya Hall
Taper: Barghest

Christofer Johnsson - Guitars
Nalle Pahlsson - Bass
Thomas Vikstrom - Vocals
Christian Vidal - Guitars

Live Musicians:
Linnea Vikstrom - Vocals
Sandra Laureano - Vocals (soprano)
Sami Karppinen - Drums[/more]

[more=Technical info]
Input File: 03-Sitra Ahra.mp3
Channels : 2
Sample Rate : 44100
Precision : 16-bit
Duration : 00:04:52.54 = 12900926 samples = 21940.4 CDDA sectors
File Size : 11.8M
Bit Rate : 323k
Sample Encoding: MPEG audio (layer I, II or III)
Comments :
Title=Sitra Ahra
Artist=Therion
Album=Live @ Izvestiya Hall, Moscow, Russia (2014)
Tracknumber=03
Year=2014
Genre=Epic Power Metal

[/more]

Register
(6) Cartman223, Hell_Is_Here, infozahist, Olethros, Rosen, Сварог Барг,
Apr 10 2019, 05:35:29 Tiamat - Live @ Arbat Hall, Moscow, Russia [bootleg] (2018)


*Artist: Tiamat
*Album: Live @ Arbat Hall, Moscow, Russia [bootleg]
*Year: 2018
*Genre: Gothic/Doom Metal
*Country: Sweden
*Format: mp3@CBR320kbps
*Size: 185MB

Tracklist:
1. In a Dream
2. Clouds
3. Smell of Incense
4. A Caress of Stars
5. The Sleeping Beauty
6. Forever Burning Flames
7. The Scapegoat
8. Wildhoney
9. Whatever That Hurts
10. The Ar
11. 25th Floor
12. The Ar (Reprise)
13. Do You Dream of Me?
14. Visionaire
15. This Is My Life (Gasolin' cover)
16. Cain
17. Vote for Love
18. Gaia
******************************
Total playing time: 1:23:43

[more=Extended info]Date: November 1st, 2018
Location: Moscow, Russia
Venue: Arbat Hall
Taper: Barghest


Johan Edlund - vocals (1987–present)
Lars Sköld - drums (1994–present)
Roger Öjersson - guitars, keyboards, mandolin, backing vocals (2011-2012, live; 2012–present)
Gustaf Hielm - bass (live; 2017-)
Magnus Henriksson – guitar (live; 2018-)
Per Wiberg - keyboards (live;2018-)[/more]

[more=Technical info]
Input File: 02-Clouds.mp3
Channels : 2
Sample Rate : 44100
Precision : 16-bit
Duration : 00:04:00.42 = 10602566 samples = 18031.6 CDDA sectors
File Size : 9.78M
Bit Rate : 325k
Sample Encoding: MPEG audio (layer I, II or III)
Comments :
Title=Clouds
Artist=Tiamat
Album=Live @ Arbat Hall, Moscow, Russia (2018)
Tracknumber=02
Year=2018
Genre=Metal

[/more]

Register
(7) Cartman223, Hell_Is_Here, infozahist, Olethros, Rosen, valafar, Woosad,
Apr 9 2019, 05:45:19 Amorphis - Live @ Volta Club, Moscow, Russia [bootleg] (2017)


*Artist: Amorphis
*Album: Live @ Volta Club, Moscow, Russia [bootleg]
*Year: 2017
*Genre: Progressive/Melodic Metal
*Country: Finland
*Format: mp3@CBR320kbps
*Size: 185MB

Tracklist:
1. Kullervo's Youth (intro)
2. Two Moons
3. House of Sleep
4. Leaves Scar
5. Born from Fire
6. Under a Soil and Black Stone
7. Perkele (The God of Fire)
8. The Smoke
9. Same Flesh
10. Brother Moon
11. Empty Opening
12. Thousand Lakes (intro)
13. Into Hiding
14. Against Widows
15. Drowned Maid
16. My Kantele
17. Better Unborn
18. Black Winter Day
******************************
Total playing time: 1:24:20

[more=Extended info]Date: May 12th, 2017
Location: Moscow, Russia
Venue: Volta Club
Taper: Barghest

Jan Rechberger - Drums
Esa Holopainen - Guitars (lead)
Tomi Koivusaari - Guitars (rhythm)
Santeri Kallio - Keyboards
Tomi Joutsen - Vocals
Olli-Pekka Laine - Bass[/more]

[more=Technical info]
Input File: 02-Two Moons.mp3
Channels : 2
Sample Rate : 44100
Precision : 16-bit
Duration : 00:03:55.30 = 10376774 samples = 17647.6 CDDA sectors
File Size : 9.56M
Bit Rate : 325k
Sample Encoding: MPEG audio (layer I, II or III)
Comments :
Title=Two Moons
Artist=Amorphis
Album=Live @ Volta Club, Moscow, Russia
Tracknumber=02
Year=2017
Genre=Metal

[/more]

Register
(7) Cartman223, Hell_Is_Here, infiltrator, infozahist, Old Vyaine, Olethros, Rosen,
Apr 9 2019, 05:15:50 Amorphis - Live @ Glavclub Green Concert, Moscow, Russia [bootleg] (2019)


*Artist: Amorphis
*Album: Live @ Glavclub Green Concert, Moscow, Russia [bootleg]
*Year: 2019
*Genre: Progressive/Melodic Metal
*Country: Finland
*Format: mp3@CBR320kbps
*Size: 181MB

Tracklist:
1. The Bee
2. The Golden Elk
3. Sky Is Mine
4. Sacrifice
5. Message in the Amber
6. Silver Bride
7. Bad Blood
8. Wrong Direction
9. Daughter of Hate
10. Heart of the Giant
11. Hopeless Days
12. Black Winter Day
13. Death of a King
14. House of Sleep
******************************
Total playing time: 1:21:32

[more=Extended info]Date: March 15th, 2019
Location: Moscow, Russia
Venue: GlavClub Green Concert
Taper: Barghest

Jan Rechberger - Drums
Esa Holopainen - Guitars (lead)
Tomi Koivusaari - Guitars (rhythm), backing vocals (growl)
Santeri Kallio - Keyboards
Tomi Joutsen - Vocals
Olli-Pekka Laine - Bass, backing vocals (clean)[/more]

[more=Technical info]
Input File: 03-Sky Is Mine.mp3
Channels : 2
Sample Rate : 44100
Precision : 16-bit
Duration : 00:04:27.41 = 11792649 samples = 20055.5 CDDA sectors
File Size : 11.4M
Bit Rate : 341k
Sample Encoding: MPEG audio (layer I, II or III)
Comments :
Title=Sky Is Mine
Artist=Amorphis
Album=Live @ GlavClub Green Concert, Moscow, Russia
Tracknumber=03
Year=2019
Genre=Metal

[/more]

Register
(5) Cartman223, Hell_Is_Here, infozahist, Olethros, Rosen,
Mar 31 2019, 03:50:49 Янтарные Слёзы - Когда Нет Троп (2019)
ЦИТАТА(Wise.man @ 31st March 2019 - 09:47:48) *
Это альбом для поклонников мело-дет-дума старого духа конца 90-х/начала нулевых (типа Paradise Belongs To You от Сатурнуса)

А у меня ЯС всегда с Годс Тауэром ассоциировались. Солирующая гитара похожая.
(1) Maestrovs,
Mar 27 2019, 02:36:47 Devin Townsend - Empath (Deluxe Edition) (2019)
Настоящая обложка

(2) infiltrator, SAPOGi,
Mar 22 2019, 11:45:06 Sickle Of Dust - In The Wake Of The Night (2019)
Музыка замечательная, альбом долгожданный, дебютник в прошлом году до дыр затер.
Сведение только не очень, как-то кашеобразно.
(2) Daale, Ostinato,
Mar 22 2019, 07:43:08 Manowar
ЦИТАТА(Emm Human @ 22nd March 2019 - 14:43:17) *
Короли металла? Не... если уж в таком ключе рассуждать, то например те же Iron Maiden в большей степени тянут на такой статус.

У Мановар это не статус, а обозначение уровня пафоса. 1488.gif
(3) Diflock, Ghostb, Old Vyaine,
Mar 21 2019, 10:58:33 Barren Earth - The Devil's Resolve (2012)
ЦИТАТА(Sky7Daemon @ 27th March 2015 - 20:43:40) *
There's apparently a Japan only bonus track:

10 The Passage Unfolds 4:29

Anyone heard it?

[youtube]4ef9_pbrZpQ[/youtube]
(1) Old Vyaine,
Mar 19 2019, 03:52:02 Сатурналии (Антипопсовая голосовалка) Часть 10 - 2015-2017, финал
Barren Earth "On Lonely Towers"

Throes Of Dawn "Our Voices Shall Remain"
(1) vam1972,
Mar 18 2019, 02:01:38 Amorphis - Queen Of Time (2018)
ЦИТАТА(Old Vyaine @ 18th March 2019 - 04:25:59) *
После концерта довелось краем уха услышать чьё-то недоумение "Почему не сыграли The Way?". Забавно, хотя мы все не теряем надежды когда-нибудь услышать ну хоть что-нибудь из эры Паси, не считая песен с Элегии.
У нас после концерта я слышал еще больший перл. "Всего одну хорошую песню сыграли". normal_Homerdisgust3s.png

ЦИТАТА(Old Vyaine @ 18th March 2019 - 04:25:59) *
но... когда гитару Койвусаари наконец-то перестанут забывать подключать к динамику, группе можно будет выходить на куда более крупные площадки.

У нас гитару было норм слышно, хотя быть может дело в том, что я прямо напротив него стоял. 1488.gif Короче, претензий к слышимости гитары нет, есть другая жалость - что слишком мало он бэк-рычалил (зато каждый из таких моментов казался бесценным pray.gif ), еще приятно удивил Лайне, довольно неплох на подпевках. (Ну а особый приз зрительских симпатий достается Сантери, ибо добрых пару часов с нами на баре общался, при чем было видно, что ему самому это по кайфу, классный мужик. 27.gif)

ЦИТАТА(Old Vyaine @ 18th March 2019 - 04:25:59) *
хотя можно было бы, наверное, таки добить сет ещё парой песен до полутора часов. Хоть нетленной классикой, хоть новым веком.

Поддерживаю, выступление очень уж быстро пролетает, пара-тройка дополнительных песен были бы в тему. Впрочем, все равно от концерта одни только положительные эмоции, всё круто, всё здорово, придираться ни к чему не хочется. smile1.gif
(1) Old Vyaine,
Mar 14 2019, 12:07:23 Manowar
ЦИТАТА(Tular @ 14th March 2019 - 20:53:03) *
Мановар вроде сами любят цены на билеты контролировать

Вы еще зайдите на их сайт, гляньте стоимость вип-билетов, предполагающих фотку с группой и автограф. 1488.gif
(1) Ghostb,
Mar 2 2019, 08:35:36 Новости Heavy/Power металла
ЦИТАТА(SAPOGi @ Mar 2 2019, 16:37:34) *
Я что то не догоняю, альбом с уже с изрядной бородой, но по книге которая вышла только буквально на днях?.

Если быть точным, книга вышла вчера. http://www.mahet.de/deutsch/projekte/diedunklenlande/

[more="Аннотация, кстати"]1629 год.
Тридцатилетняя война с ее конфликтами потрясает Европу и бушует особенно беспощадно в Германии.
Молодая искательница приключений Aenlin Kane отправляется в нейтральный город Гамбург, чтобы исследовать наследие своего знаменитого отца Соломона Кейна. Вместе со своей подругой Тахминой, персидским мистиком, она попадает в суматоху войны. Они берут на себя важную миссию Вест-Индской компании: команда разношерстных войск должна проникнуть через линии в южную Германию, вплоть до Бамберга, где жестокие испытания ведьм сжигают долю - но многое другое. Слишком много для совпадения!
Аэнлин и Тахмина знают о зле и демонах, которые бродят по земле и используют беспорядки войны в своих интересах. В ближайшее время это будет больше, чем заказ от компании.
А у командира отряда Николая темная тайна ... »

«Темные земли» происходят в одно из самых формирующих, мрачных времен Германии, смешивая истинное с вымышленным. Авантюрист, темные силы, наемники и магия![/more]

Каждый оркестровый проект нуждается в концепте, а концепт — в хорошем сюжете. Чтобы сюжет гармонировал с нашей грандиозной музыкой, мы объединились с одним из лучших немецких фэнтези-писателей — Маркусом Хайцом. Маркус один из моих любимых авторов “высокого фэнтези”. Я был потрясён некоторыми его книгами несколько лет назад, но окончательно убедился в справедливости выбора его как помощника в нашем проекте после его книги “Gerechter Zorn”, первой из новейшей трилогии “Die Legenden der Albae”. Различные аспекты его роскошной вселенной немедленно показали мне, что поиски того, кто напишет хорошую историю для нашей музыки, завершены. Хотя для завершения этого необычного сотрудничества нам предстоит напряжённо трудиться до 2013-го года, многое уже проясняется, когда мы обмениваемся идеями. Создание нового потрясающего сценария и концепта — прекрасное обрамление для “саундтреков”, к которым мы шли эти годы. Просто потрясающе, что Маркус готов следовать за нами в этом амбициозном путешествии.

Ещё один интересный аспект — намерение объединить отличительные черты нашей музыки (в несколько иной форме) с одним известным, но не до конца исследованным миром Маркуса и его героями. Я не сомневаюсь, что мы создадим новые полотна и истинную магию. К счастью, Маркус хорошо знаком с нашей группой и музыкой. Так как он часть фэнтези-сцены примерно столько же, сколько и мы, он рос с нашей музыкой в свою бытность ролевиком в восьмидесятых и девяностых. Это, конечно, очень облегчает жизнь в обмене идей и объяснении, как должен выглядеть концептуальный альбом. Тут всё взаимосвязано: кое-где музыка диктует сюжет, а кое-где история ставит условия, как должен выглядеть альбом. Чистое творчество! Кроме того, Маркус реалист и очень милый человек, у которого есть собственный взгляд. Наконец, последнее, но очень важное: он был очень доволен музыкой, которую мы показывали ему.

© Ханси Кюрш, 2011
(1) SAPOGi,
Mar 1 2019, 11:27:53 Новости Heavy/Power металла
BLIND GUARDIAN'S TWILIGHT ORCHESTRA - Orchestral album “Legacy Of The Dark Lands” to be released in November 2019!

(1) Yarri,
Feb 20 2019, 02:06:07 Blind Guardian - The Tides Of War - Live At Rock Hard Festival 2016 [ep] (2018)
ЦИТАТА(Old Vyaine @ 20th February 2019 - 04:30:53) *
Что даёт надежду на её вменяемость.

Так и есть, хороший трек. Вообще забавно получается, в то время песня казалась среднячком и ее оставили вне альбома, а в наши дни этот "среднячок" оказался лучше всего современного творчества группы.
(1) Ghostb,
Feb 19 2019, 08:50:16 Cân Bardd - The Last Rain (2019)
Что в после первого альбома было чувство "с виду добротно, но чего-то не хватает", что после этого альбома ощущения аналогичные. Приятная фоновая музыка, но не более. Саор разумеется лучше.
(1) MeatWolf,
Feb 14 2019, 14:00:38 Сатурналии (Антипопсовая голосовалка) Часть 9 - 2012-2014, итог
Проорал с постскриптума. 15.gif 15.gif 15.gif m1234.gif
(2) aesteticvice, Deze,
Feb 12 2019, 03:13:48 Сатурналии (Антипопсовая голосовалка) Часть 9 - 2012-2014, финал
2012 - достойный победитель
2013 - оба альбома нравятся на одинаково среднем уровне, голосовать не буду
2014 - оба альбома мне не интересны, оставлю выбор ценителям этих групп
(1) Deze,

32 Pages V   1 2 3 > » 
- Lo-Fi Version Support form
Copyrights and abuse reports form
Time is now: 26th May 2019 - 04:50:22