Welcome Guest ( Log In | Register )

История благодарностей участнику rotting14 ::: Спасибо сказали: 19 раз(а)
Дата поста: В теме: За сообщение: Спасибо сказали:
Jun 10 2019, 21:02:25 Inner Suffering - Hermit (2019)
Живу в убогой общаге.....так не занимайся...никто не заставляет....блекстеры хреновы
(1) Deze,
Feb 13 2019, 13:52:10 Nachtvorst - Verlies (2018)
Да, Яндекс шляпа полная, остается надеяться что товарищ Rudachur перезальет и не на яндекс.
Долго они молчали,семь лет поди,прошлый был оч хорош, даже пришлось на фирме прикупить.
(1) vosmidesijatye,
Jan 24 2016, 03:45:11 Vreid - Sólverv (2015)
Sperminator,дружище,трижды скачивал,где-то 57mb и все,загрузка завершена пишет,перезалей плиз,ифолдер не предлагать,шляпа та еще
(1) Misanthrope@,
Nov 10 2015, 05:31:41 Kampfar - Profan (2015)
По мне предыдущий альбом просто бомба,вот именно за атмосферу,за эмоции,
за его неповторимый дух настоящего блэка его и люблю
ждем в качестве.. А вот малое количество постов по сабжу, инертность пользователей МА удивляет

(1) kim666,
Mar 15 2015, 16:17:46 Katavasia - Sacrilegious Testament (2015)
Да,название сатанинское,аж мурашки по коже...
(3) Disillusion, Evilded, vosmidesijatye,
Apr 21 2014, 12:03:10 Wolf Im Schafspelz - Die Jagd Beginnt (2010)
оформление уж больно Fortid 2007-го напоминает
(1) ShmiT,
Apr 24 2013, 07:16:53 Turmion Katilot - Perstechnique (2011)


*Artist: Turmion Katilot
*Album: Perstechnique
*Year: 2011
*Genre: Industrial
*Country: Finland
*Format: mp3@CBR320kbps
*Size: 107MB

Tracklist:
1. Grand Ball
2.ihmisixsixsix
3.Suolainen kapteene
4.Hanska
5.Hellbound Earth
6.Lapset Ja Vanhemmat
7.Herran Toinen Tuleminen
8.Verta Saata
9.Rukoukset Rattoisat
10.Vedetaanko Vai Ei
******************************
Total playing time: 38:40

[more=Technical info]
Input File: 01. Grand Ball.mp3
Channels : 2
Sample Rate : 44100
Precision : 16-bit
Duration : 00:03:36.97 = 9568289 samples = 16272.6 CDDA sectors
File Size : 8.68M
Bit Rate : 320k
Sample Encoding: MPEG audio (layer I, II or III)
Comments :
Title=Grand Ball
Artist=Turmion Kätilöt
Album=Perstechnique
Tracknumber=01
Year=2011
Genre=Industrial Metal

[/more]

Register
(1) Stringer,
Sep 26 2012, 11:16:02 Fortíð - Pagan Prophecies (2012)
По мне лучший альбом 2007-го года,но у них всегда была отличная атмосфера
за что я их и люблю
(2) fabeldyr, Kazoth,

- Lo-Fi Version Support form
Copyrights and abuse reports form
Time is now: 19th February 2020 - 10:45:21