Welcome Guest ( Log In | Register )

История благодарностей участнику Genuine Thrashiac ::: Спасибо сказали: 27052 раз(а)
Дата поста: В теме: За сообщение: Спасибо сказали:
Jul 15 2018, 21:56:59 Limbo - Limbo (2018)
ЦИТАТА(Ogidni @ Jul 15 2018, 22:23:49) *
Да чё уж там, просто Metal в жанре бы указал, да и все
Не понял сарказма.
Джентяра какая-то. Djent
(1) Shadowman,
Jul 14 2018, 03:04:21 Morbid Sin - Where's Your Fucking God? (2018)
(1) Samaritianin,
Jul 13 2018, 01:03:42 Kammerjäger - Rising From Hell (2017)
russ777, Ранннингов? ГрейвДиггер?
Если бы добавить волынок - то Ин Экстремо напомнили бы кое-где.

Вообще не проникся. Ну, нету трэша тут. Спидо-Хэви (ИМХО) :\
(1) Samaritianin,
Jul 11 2018, 16:51:57 Monster Truck - Strength For Better Days [ep] (2009)
ЦИТАТА(pichileon @ Jul 11 2018, 05:19:17) *
link broken, reup please.
Register

(1) pichileon,
Jun 29 2018, 21:07:37 Рекорды очереди премодерации релизов
Луч, тема (была) нужна, чтобы привлечь читателя тех, кто горит энтузиазмом и кого могли бы (ещё) подтянуть в модеры-премодеры (в своё время - см. дату заглавного сообщения темы, да).
Ну, а скорость релиза для кого-то там важна - вон, у Самаритянина узнай - он вечно бедкается.


А вообще - по фану: рекорды премодерации релизов захотелось зафиксировать. Ведь есть же всякие темы - те же голосовалки. Кого чего прёт.)

Вот только скрины сдохли \\
(1) Луч,
Jun 28 2018, 23:34:48 Attack - Kill Your Fear (1998)
ЦИТАТА(ultimate_satanic_ass @ Jun 29 2018, 01:25:18) *
file damaged
try 7Z archivator for the "unzip".
(1) ultimate_satanic_ass,
Jun 27 2018, 16:57:11 Crusher - Sonrisa Brillante [demo] (1991)
ЦИТАТА(pichileon @ Jun 23 2018, 03:17:32) *
LINK BROKEN , REUP PLEASE
Register
(1) pichileon,
Jun 27 2018, 09:55:22 Лучшие Thrash Metal альбомы 2018 (2) Diflock, Samaritianin,
Jun 27 2018, 09:26:23 ГРБ?! (Thrash Metal)
Register
(1) Samaritianin,
Jun 27 2018, 08:59:52 Лучшие Thrash Metal альбомы 2018 (1) Samaritianin,
Jun 26 2018, 22:41:08 Новости Thrash Metal направления
[more=Black Fast - Spectre of Ruin (2018)
Release date Label Catalog ID Format
July 13th, 2018 eOne CD Digipak
July 13th, 2018 eOne Vinyl Limited edition, Colored vinyl
July 13th, 2018 eOne Digital

на открывашку уже есть клип:
"Cloak Of Lies"][youtube]kdiSmKMYPFs[/youtube]
https://youtu.be/kdiSmKMYPFs?list=PLX61tYO3...EcV0z13nhpgrXRv[/more]

[more=Tantara - Sum of Forces (2018)
Release date Label Catalog ID Format
September 7th, 2018 Indie Recordings CD
September 7th, 2018 Indie Recordings 12" vinyl

послушать открывашку "Punish the Punisher" на ютуб]
https://youtube.com/watch?v=GwNMniR455U&...EcV0z13nhpgrXRv
[youtube]GwNMniR455U[/youtube][/more] ещё как вариант для прослушки https://believemusic.lnk.to/61qX_
(1) Samaritianin,
Jun 26 2018, 22:23:13 Judas Priest - Painkiller (1990)
[more=Painkiller (Green Elephanty Metal cover/mix)
(слабонервным не смотреть)]
[youtube]LD4lKONDEo0[/youtube]
https://youtu.be/LD4lKONDEo0[/more]
(1) raattent,
Jun 23 2018, 21:17:24 Лучшие Thrash Metal альбомы 2017
Крайне рекомендую к прослушке подборку трэшера с ютуба: metaler.gif banana.gif
[youtube]dm0ZU-Indxo[/youtube]

(по ссылке - плейлист из 8 компиляций)
https://youtube.com/watch?v=dm0ZU-Indxo&...t=RDdm0ZU-Indxo
(1) Samaritianin,
Jun 23 2018, 14:55:35 Hell Patröl - Leather And Chrome (2018)


*Artist: Hell Patröl
*Album: Leather And Chrome
*Year: 2018
*Genre: Old School Speed Metal
*Country: Germany
*Format: mp3@CBR128kbps
*Size: 42MB

Tracklist:
01. Still Flyin' 04:38
02. Speed Demons Rise 04:19
03. Don't Panic 04:49
04. The Gunslinger 04:28
05. Coming Home 04:43
06. Death From The Sky 03:22
07. Tear Down The Wall 04:48
08. Regicide 04:39
09. Millennial Speed Metal 03:48
10. Magnificent 05:32
******************************
Total playing time: 45:06


HellPatroel.de

[more=Extended info]released February 24, 2018

debut full-length

early them Hell Patröl - Front Row Speedbanging Madness [ep] (2015)[/more]

[more=Technical info]
Input File: 09 - Millennial Speed Metal.mp3
Channels : 2
Sample Rate : 44100
Precision : 16-bit
Duration : 00:03:48.44 = 10074380 samples = 17133.3 CDDA sectors
File Size : 3.65M
Bit Rate : 128k
Sample Encoding: MPEG audio (layer I, II or III)
Comments :
Title=Millennial Speed Metal
Artist=Hell Patrol (Deu)
Album=Leather And Chrome
Tracknumber=9
Year=2018

[/more]

Register
(8) avkruchinin, Boozer, gwar, infiltrator, metala, Rosen, VALERY, wgs73,
Jun 16 2018, 12:18:54 Лучшие Thrash Metal альбомы 2018 (1) Samaritianin,
Jun 16 2018, 10:46:58 Obscene Jester - Citadels On Fire [ep] (1989)
[youtube]QexFsUDa8ng[/youtube]
https://youtu.be/QexFsUDa8ng
(1) avkruchinin,
Jun 14 2018, 22:55:27 Smash Potater - In Buffet There Is No Law! [ep] (2013)
ЦИТАТА(thrasher26 @ Jun 15 2018, 00:04:52) *
Those links don't work :/
re-up please
at the bandcamp at various formats digital for your choice
(2) pichileon, thrasher26,
Jun 14 2018, 13:21:34 Лучшие Thrash Metal альбомы 2018 (1) Samaritianin,
Jun 14 2018, 12:50:47 Poisöncharge - Choppers D-Beat And Satan [ep] (2015)
ЦИТАТА(Patrick @ Jun 13 2018, 08:15:57) *
Re-upload please!
Register

(1) Patrick,
Jun 10 2018, 21:47:21 Corpsecandle - Lethal Approach [demo] (1996)
ЦИТАТА(templ @ Jun 10 2018, 23:33:42) *
перезалейте кто может, граждане
23.gif Без паники. Гражданин, пройдёмте
Register
later them Corpsecandle - An Encounter At An Infernal Empire [ep] (2002)
(1) templ,
Jun 10 2018, 19:32:15 Nomenclature Diablerie - 888 [demo] (1988)
Писец, мне аж мурашки по коже...
Такую жуть и сырь в Австралии в 1988-м то записали...
Дэто, Блэко- Думовая сырь.
(1) Necrodictator,
Jun 10 2018, 18:37:53 Skrew
У меня типа была зарелижена промка,

а полноформат - вот: Skrew - Universal Immolation (2014)
(1) mirotvorets,
Jun 9 2018, 17:19:53 The Konsortium - Rogaland (2018)
ЦИТАТА(AHBAnep @ Jun 9 2018, 18:45:53) *
А все заметили, как скромно Эстетик обозначил стиль альбома?
Норвеги удивили, но это - ещё больше...
Он одно время пропадал...
ЕГО ПОДМЕНИЛИ! fear.gif
(2) avkruchinin, vosmidesijatye,
Jun 6 2018, 19:48:42 Kiloton - First Blood (2018)
ЦИТАТА(AHBAnep @ Jun 6 2018, 08:04:13) *
Сссылка на фейсбук, не ведущая никуда, ссылка на пустой BC. Обычно дело..

https://www.kilotonband.com
Жду, пока что-то выложат на превью..
Пополнили бендкамп


Ну, такое - первый альбом Металлики с помесью Эксплоитед + своя несыгранность (неспетость) сырь.
Лучше бы не слышать \
(1) AHBAnep,
Jun 4 2018, 22:45:01 Today Needed
jerrytodd, this topic is for the requests of what is already was formed as the releases here - on metalarea.org
not metal-archives links here
(1) thenecromancer,

317 Pages V   1 2 3 > » 
- Lo-Fi Version Support form
Copyrights and abuse reports form
Time is now: 20th July 2018 - 13:16:38