Welcome Guest ( Log In | Register )

История благодарностей участнику nannoblack ::: Спасибо сказали: 2765 раз(а)
Дата поста: В теме: За сообщение: Спасибо сказали:
Feb 14 2018, 13:53:55 Ison - Cosmic Drone [ep] (2015)


*Artist: Ison
*Album: Cosmic Drone [ep]
*Year: 2015
*Genre: Post-Rock/Ambient
*Country: Sweden
*Format: mp3@VBR257kbps
*Size: 66MB

Tracklist:
1. Lost Satellites 03:22
2. Atlas 06:39
3. RedShift 09:14
4. Icosahedron 07:52
5. Travellers 08:01
******************************
Total playing time: 35:08



[more=Technical info]
Input File: 02 ISON - Atlas.mp3
Channels : 2
Sample Rate : 44100
Precision : 16-bit
Duration : 00:06:39.49 = 17617509 samples = 29961.8 CDDA sectors
File Size : 12.7M
Bit Rate : 255k
Sample Encoding: MPEG audio (layer I, II or III)
Comments :
Title=Atlas
Artist=ISON
Album=Cosmic Drone
Tracknumber=2/5
Year=2015
Genre=Shoegaze; Post-Rock; Doom Metal; Goth Rock

[/more]

Register
(6) Femto, infiltrator, Kwaad, Ostinato, POMAHOB, winterfury,
Mar 16 2017, 18:56:36 Pg.Lost - Versus (2016)


*Artist: Pg.Lost
*Album: Versus
*Year: 2016
*Genre: Instrumental Post-Rock
*Country: Sweden
*Format: mp3@CBR320kbps
*Size: 122MB

Tracklist:
01. Ikaros
02. Off The Beaten Path
03. Monolith
04. Versus
05. Deserter
06. Along The Edges
07. A Final Vision
******************************
Total playing time: 53:15

[more=Technical info]
Input File: 02. Off the Beaten Path.mp3
Channels : 2
Sample Rate : 44100
Precision : 16-bit
Duration : 00:06:15.10 = 16542086 samples = 28132.8 CDDA sectors
File Size : 15.1M
Bit Rate : 321k
Sample Encoding: MPEG audio (layer I, II or III)
Comments :
Title=Off the Beaten Path
Artist=Pg.lost
Album=Versus
Tracknumber=2
Year=2016
Genre=Post Rock

[/more]

Register
(3) Emhyr var Emreis, igorzz, SatanicPanzer,
Oct 17 2015, 09:03:53 Lik - Mass Funeral Evocation (2015)
Не пойму че за негодования. С названием конечно неловко получилось, но дезня то отменная!
(3) Evilded, infiltrator, Metalass,
Sep 14 2015, 19:57:52 Chaos Construct - Sleep (Is For The Weak) (2015)
Блин, а я забалдел с альбома конкретно! Для меня это топ года из МДМа! Единственное что раздражает, это вокал телки в пятом треке
(2) aserius, neoatheist,
Jun 22 2015, 18:32:56 Forlorn Winds - Murmurs With The Decapitated (2015)
Ой красота!
(2) Raw1488, добрыйКот,
May 15 2015, 15:15:33 Entrails - Obliteration (2015)
320
Register
(31) 6666666, aa144aa, aorta3, Ash_1980, Black Cat, Buregon, Chasm, Devourer, Evilded, Extreme Brutal, Fess, Geo_log, KVRT, Lux, metalpicks, Metropolis, Moonshtook, neoatheist, princeshr, Proteus_666, Razorbladeswaltz, realexxx75, Reverend, SatanicPanzer, sperminator, StoneTemple, swed, thate_topa, Typhoid, WarmasterChorus, Варонъ,
Apr 20 2015, 18:15:42 Outre - Ghost Chants (2015)
Поляки же
Nov 16 2014, 08:37:24 Bloodbath - Grand Morbid Funeral (2014)
да, по вокалу полный провал. жаль Акерфельдта не взяли
(2) Chasm, infiltrator,
Oct 4 2014, 13:06:38 Fleshgore - Domain Of Death [ep] (2014)


*Artist: Fleshgore
*Album: Domain Of Death [ep]
*Year: 2014
*Genre: Brutal Death Metal
*Country: Ukraine
*Format: mp3@CBR320kbps
*Size: 33MB

Tracklist:
1. Interminable Of Catastrophe
2. Ministry Of Fear
3. Domain Of Death
4. Piece By Piece (Slayer Cover)
******************************
Total playing time: 14:05



[more=Extended info]thx SBDC[/more]

[more=Technical info]
Input File: 02. Ministry Of Fear.mp3
Channels : 2
Sample Rate : 44100
Precision : 16-bit
Duration : 00:03:21.87 = 8902467 samples = 15140.2 CDDA sectors
File Size : 8.07M
Bit Rate : 320k
Sample Encoding: MPEG audio (layer I, II or III)
Comments :
Title=Ministry Of Fear
Artist=Fleshgore
Album=Domain Of Death
Tracknumber=2
Year=2014

[/more]

Register
(26) andreikun, Euthanasiast, Galactus, Hell_Is_Here, infiltrator, infozahist, Konst, lortz, maochen, martintrue, mayrink, mcrooh, MeathookSeed, neoatheist, Paradayz, Rosen, samokot, satanist666, sperminator, spiritualdecay666, StabWound, stone88, varlam4, wreak, yuratroll, Герб,
Sep 23 2014, 18:34:50 Soils Of Fate - Thin The Herd (2014)


*Artist: Soils Of Fate
*Album: Thin The Herd
*Year: 2014
*Genre: Brutal Death Metal
*Country: Sweden
*Format: mp3@CBR320kbps
*Size: 82MB

Tracklist:
1. Weaponry Wisdom
2. Thin The Herd
3. Brotherhood (Omertá Part II)
4. 8.9.3
5. High Lead Intake
6. O.O.O / T.T.T
7. ValeTudo
8. I Am Violence
9. C21H23NO5
10. Dogma
******************************
Total playing time: 36:29




[more=Technical info]
Input File: 03 - Brotherhood (Omerta Part II).mp3
Channels : 2
Sample Rate : 44100
Precision : 16-bit
Duration : 00:02:54.03 = 7674591 samples = 13052 CDDA sectors
File Size : 6.96M
Bit Rate : 320k
Sample Encoding: MPEG audio (layer I, II or III)
Comments :
Title=Brotherhood (OmertГЎ Part II)
Artist=Soils Of Fate
Album=Thin The Herd
Tracknumber=03/10
Year=2014
Genre=Brutal Death Metal
Discnumber=1/1

[/more]

Register

Register
(37) andreikun, Battaleon, Bitchkiller, bka, Boozer, Buregon, CRUNCH, Dmitry1977, Emhyr var Emreis, Hell_Is_Here, igorzz, Konst, KVRT, MeathookSeed, metala, MMMMM, Moonshtook, Necrokilldozer, neoatheist, nsmetalhead, Proteus_666, Radiosilence, realexxx75, respect, Rosen, Ruben, Saalingurth, sperminator, Tino, toly1917, Typhoid, VALERY, varlam4, vyacheslav, Wolfera, wreak, wtk.412,
Aug 16 2014, 14:19:11 Six String Slaughter - Born Unspoiled (2014)


*Artist: Six String Slaughter
*Album: Born Unspoiled
*Year: 2014
*Genre: Death Metal
*Country: Denmark
*Format: mp3@CBR320kbps
*Size: 81MB

Tracklist:
1. Born Unspoiled
2. Holy Lies
3. Gathering Dust
4. Everywhere (There Are Prophets)
5. Nothing But Death In The End
6. I Am Not At War
7. Virulent Narcissism
8. Careless
9. Building The Monuments
10. Birth Of Ignorance (Brutal Truth Cover)
******************************
Total playing time: 35:35



[more=Technical info]
Input File: 03 - Gathering Dust.mp3
Channels : 2
Sample Rate : 44100
Precision : 16-bit
Duration : 00:03:51.63 = 10214707 samples = 17372 CDDA sectors
File Size : 9.27M
Bit Rate : 320k
Sample Encoding: MPEG audio (layer I, II or III)
Comments :
Title=Gathering Dust
Artist=Six String Slaughter
Album=Born Unspoiled
Tracknumber=03
Year=2014
Genre=Death Metal

[/more]

Register
(19) andreikun, BRUTAL06, d-fedorr, fishish, Hell_Is_Here, killingod, MMMMM, neoatheist, oldvarg, Phlebotomized, Rosen, samokot, sperminator, Typhoid, VALERY, vov7609, vyacheslav, wgs73, wreak,
May 8 2014, 17:48:40 Puteraeon - The Crawling Chaos (2014)
слабый альбом вышел. все очень вяло, уныло и однообразно.
разочаровали поцоны 6.gif
(2) andreikun, Diflock,
Mar 29 2014, 08:03:23 Skogen - I Döden (2014)
ЦИТАТА(judaz @ Mar 29 2014, 00:30:10) *
Skogen это одна из тех групп, альбомы которых регулярно скачиваешь, каждый раз мучительно пытаясь вспомнить что же они играют.

страшный грех такие группы забывать nono.gif
(1) troll_swamp,
Jan 31 2014, 14:26:37 Behemoth - The Satanist (2014)
ЦИТАТА(SonicTheHedgehog @ Jan 31 2014, 15:18:04) *
Не слушал, но знаю что это тащемта кал например. Как рэп, только хуже.

взлольнул 15.gif
(3) Typhoid, uN90D1y, vosmidesijatye,
Jan 27 2014, 09:43:18 Rafnatyr - Rafnatyr [ep] (2013)


*Artist: Rafnatyr
*Album: Rafnatyr [ep]
*Year: 2013
*Genre: Atmospheric Black/Doom Metal
*Country: Sweden
*Format: mp3@VBR128kbps
*Size: 18MB

Tracklist:
1. Ygg
2. Nine Nights
3. Ascending
******************************
Total playing time: 20:10



Register
(10) blacky66, Boozer, craP_cillA, marilin, RENыч, Sjelekval, smes, tont, vasiljev_sergej, Госпромнадзор,
Jan 10 2014, 16:53:29 Hypothermia - Självdestruktivitet Född Av Monotona Tankegångar IV: Warakumbla [ep] (2014)


*Artist: Hypothermia
*Album: Självdestruktivitet Född Av Monotona Tankegångar IV: Warakumbla [ep]
*Year: 2014
*Genre: Black Metal
*Country: Sweden
*Format: mp3@CBR128kbps
*Size: 20MB

Tracklist:
1. Självdestruktivitet född av monotona tankegångar IV: Warakumbla 22:06
******************************
Total playing time: 22:06

Preview 1

Register
(27) 0x13, craP_cillA, ddarkthrone, deep-pression, Forest Silence, juanguillermo13, NachtWulf, Occultas, Omeiht, rammmirez, rimfrost, RUSP73, serach, severina, shadow666, Shuranator, SIAVASH, Sjelekval, svartrest, the_cleanser, tont, Tratil, Tulen_FM, vasiljev_sergej, wreak, ZA670, Госпромнадзор,
Dec 17 2013, 16:44:12 Down Among The Dead Men - Down Among The Dead Men (2013)
А Олежка был бы дважды молодез, если бы откопал альбом от Dead Sun от того же Рогги.
(2) aserius, vosmidesijatye,
Dec 17 2013, 15:17:17 Down Among The Dead Men - Down Among The Dead Men (2013)
aserius
Severed Limbs есть уже давно на форуме
(1) aserius,
Dec 15 2013, 09:31:04 Dead Sun - The Clockwise Charade 2013
Rogga Johansson
[youtube]D96HKuCn9rw[/youtube]
(2) aserius, metadeat,
Oct 17 2013, 11:36:28 Orcultus - Endless Hate & Misanthropy [ep] (2013)
пацанов запомнил, ибо дэмка была круть! да и эта ЕПихо что надо!
ждем полноформат кароч!
(1) Void_Dragon,
Oct 15 2013, 17:15:35 Sarkom - Doomsday Elite (2013)
а мне норм
(1) neoatheist,
Oct 15 2013, 12:59:12 Degrade - Degrade (2013)
блин, я думал шведы возродились smile2.gif
(2) Eudial, Typhoid,
Oct 13 2013, 17:07:00 Hädanfärd - Smutsiga Sinnen (2013)

только нафига тогда создавать кучу проектов?
клепал бы все под одной маркой!
(1) vosmidesijatye,
Oct 10 2013, 19:59:19 No One Gets Out Alive - Widowmaker (2013)


*Artist: No One Gets Out Alive
*Album: Widowmaker
*Year: 2013
*Genre: Brutal Death Metal
*Country: Germany
*Format: mp3@CBR320kbps
*Size: 91MB

Tracklist:
1.White Devil 3:17
2.Huntin' Season 3:22
3.Burn The Barn Down 3:22
4.Give War A Chance 3:46
5.Keep It Flying! 3:45
6.WidowmakeR 3:21
7.What Happens In The Barn Stays In The Barn 3:51
8.Trailerpark BBQ 3:15
9.You'll Never Leave The Mountains 4:46
10.Slammin' Outlaw 2:45
11.Watch Ya 13th Step, I'll Break Ya Neck (Bonus Track) 3:54
******************************
Total playing time: 39:24



[more=Technical info]
Input File: 10 - Slammin\' Outlaw.mp3
Channels : 2
Sample Rate : 44100
Precision : 16-bit
Duration : 00:02:45.05 = 7278837 samples = 12379 CDDA sectors
File Size : 6.61M
Bit Rate : 320k
Sample Encoding: MPEG audio (layer I, II or III)
Comments :
Title=Slammin' Outlaw
Artist=No One Gets Out Alive
Album=Widowmaker
Tracknumber=10/11
Year=2013
Genre=Brutal Death Metal

[/more]

Register
(31) 666BlackDeath, andreikun, C7X, caro, DarkHorde, Fetus_In_Fetu, garretje, gav-gafi, Hell_Is_Here, Indamage, jollo, logunarm, maochen, MeathookSeed, metala, MetallWarriorRus, MMMMM, nyktalgin, Old Vyaine, realexxx75, Rosen, satanist666, sethurius, StabWound, Styx, Typhoid, Vincent, waldemardr, wreak, yuratroll, Герб,
Oct 8 2013, 18:06:31 Slowly Rotten - Human Misery (2013)


*Artist: Slowly Rotten
*Album: Human Misery
*Year: 2013
*Genre: Brutal Death Metal
*Country: Germany
*Format: mp3@CBR320kbps
*Size: 84MB

Tracklist:
01. Contain Traces Of Human Flesh
02. Son Of A Slave
03. Beheading The Widow
04. Old Siren
05. Humanity Kills
06. Self Infected Depression
07. Lifeless Truth
08. Rotten And Forgotten Part II
09. Contract To Surgery
10. Outro
11. Blood On My Hands (Bonus Track)
12. Dismembered Brain (Bonus Track)
******************************
Total playing time: 30:23



[more=Extended info]+scans[/more]

[more=Technical info]
Input File: 11 - Blood On My Hands (Bonus Track).mp3
Channels : 2
Sample Rate : 44100
Precision : 16-bit
Duration : 00:02:47.69 = 7395041 samples = 12576.6 CDDA sectors
File Size : 6.71M
Bit Rate : 320k
Sample Encoding: MPEG audio (layer I, II or III)
Comments :
Title=Blood On My Hands (Bonus Track)
Artist=Slowly Rotten
Album=Human Misery
Tracknumber=11
Year=2013
Genre=Brutal Death Metal

[/more]

Register
(22) andreikun, C7X, CaptianGoreGrind, caro, DarkHorde, garretje, Hell_Is_Here, jollo, logunarm, MeathookSeed, metala, MMMMM, Pentium.Disel, respect, Rosen, satanist666, sperminator, Typhoid, Vincent, wgs73, wreak, Герб,

24 Pages V   1 2 3 > » 
- Lo-Fi Version Support form
Copyrights and abuse reports form
Time is now: 9th December 2019 - 18:57:01