Welcome Guest ( Log In | Register )

История благодарностей участнику TDM ::: Спасибо сказали: 7296 раз(а)
Дата поста: В теме: За сообщение: Спасибо сказали:
Aug 23 2019, 18:41:55 Sunstroke - Demolition/Ruination [compilation] (2015)


*Artist: Sunstroke
*Album: Demolition/Ruination [compilation]
*Year: 2015
*Genre: Death Metal
*Country: Hungary
*Format: mp3@CBR320kbps
*Size: 39MB

Tracklist:
1. Interval 02:59
2. Mammon's Dream 01:41
3. Novus Ordo Seclorum 03:41
4. Delirium (Lock-Up cover) 01:59
5. Wolverine Blues (Entombed cover) 02:16
6. Suffer the Children (Napalm Death cover) 03:58
******************************
Total playing time: 16:34

[more=Technical info]
Input File: 03 - Novus Ordo Seclorum.mp3
Channels : 2
Sample Rate : 44100
Precision : 16-bit
Duration : 00:03:38.35 = 9629059 samples = 16376 CDDA sectors
File Size : 8.73M
Bit Rate : 320k
Sample Encoding: MPEG audio (layer I, II or III)
Comments :
Title=Novus Ordo Seclorum
Artist=Sunstroke
Album=Demolition/Ruination
Tracknumber=3
Year=2015
Genre=Death Metal

[/more]

Register
(6) artscald, infiltrator, Olethros, Ostinato, stumpheavyrock, Герб,
Aug 19 2019, 19:09:32 Kafziel - Elements (2019)
второсортная балалайка
(1) Ghostb,
Aug 16 2019, 11:05:45 Sabbat - Far East Sabbatical Live Attack!!! [live] (2000)


*Artist: Sabbat
*Album: Far East Sabbatical Live Attack!!! [live]
*Year: 2000
*Genre: Black/Thrash Metal
*Country: Japan
*Format: mp3@CBR320kbps
*Size: 120MB

Tracklist:
1. Satan Bless You
2. Evil Nations
3. Torment in the Pentagram
4. Sabasius instrumental
5. Envenom into the Witch’s Hole
6. Godz of Satan
7. Total Necro...
8. Beyond the River
9. The Whisper of Demon
10. Black Fire
11. Satan Is Beautiful
12. Reversed Bible
******************************
Total playing time: 27:22

[more=Technical info]
Input File: 06 - Godz Of Satan.mp3
Channels : 2
Sample Rate : 44100
Precision : 16-bit
Duration : 00:04:16.25 = 11300713 samples = 19218.9 CDDA sectors
File Size : 10.3M
Bit Rate : 320k
Sample Encoding: MPEG audio (layer I, II or III)
Comments :
Title=Godz Of Satan
Artist=Sabbat
Album=Far East Sabbatical Live Attack!!! (Live At Music Farm July 15Th 1992)
Tracknumber=6
Year=2000
Genre=Black/Thrash Metal

[/more]

Register
(11) artscald, cancer1974, FUDEDOR, KKK1488, marilin, Olethros, Pinhead666, Rosen, stumpheavyrock, thenecromancer, tireheb,
Aug 16 2019, 11:01:27 Deathrical - Dark Saturnal (2010)


*Artist: Deathrical
*Album: Dark Saturnal
*Year: 2010
*Genre: Gothic Metal
*Country: Finland
*Format: mp3@CBR320kbps
*Size: 73MB

Tracklist:
1. Dark Saturnal 05:10
2. At the World's End 05:22
3. Prelude: Grace of Dawn 01:57
4. Oceandawn 04:08
5. Gabriel's Care 04:20
6. Dead of Night 06:25
******************************
Total playing time: 27:22

[more=Technical info]
Input File: 04 - Oceandawn.mp3
Channels : 2
Sample Rate : 44100
Precision : 16-bit
Duration : 00:04:08.34 = 10951618 samples = 18625.2 CDDA sectors
File Size : 11.8M
Bit Rate : 379k
Sample Encoding: MPEG audio (layer I, II or III)
Comments :
Title=Oceandawn
Artist=Deathrical
Album=Dark Saturnal
Tracknumber=4
Year=2010
Genre=Gothic Metal

[/more]

Register
(14) AHBAnep, artscald, chipsgott, Kitalter, Ludwig Hagen, metalwoman, Mogozoz, Olethros, Rosen, Rover, sergsazan, TeamatSE, umnaxtet, uncolored,
Aug 16 2019, 10:57:20 Goddess - Voyager [ep] (2019)


*Artist: Goddess
*Album: Voyager [ep]
*Year: 2019
*Genre: Instrumental Stoner Rock/Metal
*Country: Romania
*Format: mp3@CBR320kbps
*Size: 64MB

Tracklist:
1. Crusher 05:49
2. Breaker 06:20
3. Fixer 03:25
4. Dreamer 04:54
5. Jammer 01:56
6. Voyager 05:32
******************************
Total playing time: 27:56



[more=Extended info]Годнота[/more]

[more=Technical info]
Input File: 04 - Dreamer.mp3
Channels : 2
Sample Rate : 44100
Precision : 16-bit
Duration : 00:04:54.13 = 12971045 samples = 22059.6 CDDA sectors
File Size : 11.8M
Bit Rate : 322k
Sample Encoding: MPEG audio (layer I, II or III)
Comments :
Title=Dreamer
Artist=Goddess
Album=Voyager EP
Tracknumber=4
Year=2019
Genre=Instrumental Stoner Rock/Metal

[/more]

Register
(4) artscald, Olethros, Rosen, stumpheavyrock,
Aug 15 2019, 08:11:26 Cynic
Ремикс? Ремастер? Там все и так хорошо, даже великолепно.
(1) adeptus_custodes,
Jul 30 2019, 08:23:24 King Hobo - Mauga (2019)
Каеф!
(2) BleedingSun, infiltrator,
Jul 26 2019, 08:43:33 Kamchatka - Volume II (2007)
Как обычно, без комментов! Хотя этот кайф не нуждается в них.
(2) BleedingSun, infiltrator,
Jul 25 2019, 11:08:18 Baradj - Hunnar (2019)
Стиль Эстетик писал?
(1) vosmidesijatye,
Jul 25 2019, 10:25:59 Sandveiss - Scream Queen (2013)
хорошо и замечательно
(1) vosmidesijatye,
Jul 22 2019, 17:09:38 Evil Madness - Bastards Get Rotten (2015)
ЦИТАТА(aesteticvice @ Jul 15 2015, 14:00:05) *
а звук такой же из jопы

ЦИТАТА(vosmidesijatye @ Jul 22 2019, 19:02:12) *
FLAC

дупа-флак
(1) vosmidesijatye,
Jul 22 2019, 16:49:50 Советская Милиция - Полная Деконструкция Всего Человеческого (2019)
Не слушал сабж, поэтому не берусь судить.

Буду защищать любой стафф, где есть сиськи, говно и капля митола.
(1) vosmidesijatye,
Jul 22 2019, 16:36:58 Советская Милиция - Полная Деконструкция Всего Человеческого (2019)
но ведь не сочиняешь же
да и жирного психоделик-стоунера за твои авторством мы пока не слышали
(1) Black Cat,
Jul 22 2019, 16:13:40 Советская Милиция - Полная Деконструкция Всего Человеческого (2019)
Дядь, ну кому интересны тут твои коричневые мазки?
(4) Ash_1980, Black Cat, garmonbozia, Infidel,
Jul 22 2019, 10:57:55 Альбом 2009 года в жанре technical / progressive death. Финал
Augury - Fragmentary Evidence
(1) Deze,
Jul 21 2019, 22:13:32 Peste Noire - La Chaise-Dyable (2015)
Умиляют заявления "лучше послушать имярек, чем сабж".
Это в ординарном блэцке: не нравится Сортирикон - можно послушать Дарктрон или Абигорку.
Пест Нуар такой один, ты либо слушаешь его, либо нет и никаких альтернатив ему не существует.
(2) infiltrator, NecroButcher,
Jul 21 2019, 21:23:13 No Point In Living - Unhappy Birthday [single] (2018)
ЦИТАТА(AlexCrazy @ Jul 21 2019, 23:20:47) *
горшочек, не вари..... smile1.gif

не бубни, диско оформили 25.gif
(2) infiltrator, vosmidesijatye,
Jul 21 2019, 21:10:38 No Point In Living - Past Memories (2017)
ЦИТАТА(vosmidesijatye @ Jul 21 2019, 23:08:17) *
Олег бы не согласился 1488.gif

сам аффтар называет эту комбинацию progressive depressive
вполне в духе Эстетика
(2) infiltrator, vosmidesijatye,
Jul 21 2019, 19:47:04 No Point In Living - Past Memories (2017)
ЦИТАТА(vosmidesijatye @ Jul 21 2019, 21:31:34) *
Японский городовой многостаночник 1488.gif

еще 6 штук в модерке 1488.gif
(2) infiltrator, vosmidesijatye,
Jul 21 2019, 19:45:30 No Point In Living - Unhappy Birthday [single] (2018)


*Artist: No Point In Living
*Album: Unhappy Birthday [single]
*Year: 2018
*Genre: Instrumental Depressive Black Metal
*Country: Japan
*Format: mp3@CBR320kbps
*Size: 24MB

Tracklist:
1. Unhappy Birthday 10:23
******************************
Total playing time: 10:23



[more=Technical info]
Input File: 01 - Unhappy Birthday.mp3
Channels : 2
Sample Rate : 44100
Precision : 16-bit
Duration : 00:10:23.11 = 27479151 samples = 46733.2 CDDA sectors
File Size : 25.1M
Bit Rate : 322k
Sample Encoding: MPEG audio (layer I, II or III)
Comments :
Title=Unhappy Birthday
Artist=No Point In Living
Album=Unhappy Birthday (Single)
Tracknumber=01
Year=2018
Genre=Depressive Black Metal

[/more]

Register
(8) artscald, dermarsoran, infiltrator, kimkayoung, Olethros, Ostinato, Rosen, wreak,
Jul 21 2019, 19:42:35 No Point In Living - Twilight [ep] (2018)


*Artist: No Point In Living
*Album: Twilight [ep]
*Year: 2018
*Genre: Instrumental Depressive Black Metal
*Country: Japan
*Format: mp3@CBR320kbps
*Size: 67MB

Tracklist:
1. Twilight 06:31
2. Time Has Stopped 08:00
3. Loveless 12:35
******************************
Total playing time: 27:06



[more=Technical info]
Input File: 03 - Loveless.mp3
Channels : 2
Sample Rate : 44100
Precision : 16-bit
Duration : 00:12:35.11 = 33300527 samples = 56633.5 CDDA sectors
File Size : 30.3M
Bit Rate : 322k
Sample Encoding: MPEG audio (layer I, II or III)
Comments :
Title=Loveless
Artist=No Point In Living
Album=Twilight EP
Tracknumber=03
Year=2018
Genre=Depressive Black Metal

[/more]

Register
(9) artscald, dermarsoran, infiltrator, kimkayoung, Olethros, Ostinato, Rosen, SilentNidhogg, wreak,
Jul 21 2019, 19:40:11 No Point In Living - The Winter (2018)


*Artist: No Point In Living
*Album: The Winter
*Year: 2018
*Genre: Depressive Black Metal
*Country: Japan
*Format: mp3@CBR320kbps
*Size: 129MB

Tracklist:
1. The Beginning of Last Winter 11:31
2. Cold Wind 11:02
3. Frozen Tree 03:44
4. Blood on Snow 07:28
5. Walk into the Forest 04:26
6. Last Day of Winter 18:26
******************************
Total playing time: 56:37



[more=Technical info]
Input File: 05 - Walk Into The Forest.mp3
Channels : 2
Sample Rate : 44100
Precision : 16-bit
Duration : 00:04:26.08 = 11733908 samples = 19955.6 CDDA sectors
File Size : 10.7M
Bit Rate : 322k
Sample Encoding: MPEG audio (layer I, II or III)
Comments :
Title=Walk Into The Forest
Artist=No Point In Living
Album=The Winter
Tracknumber=05
Year=2018
Genre=Depressive Black Metal

[/more]

Register
(10) aleon, artscald, dermarsoran, infiltrator, kimkayoung, Olethros, Ostinato, Rosen, SilentNidhogg, wreak,
Jul 21 2019, 19:36:18 No Point In Living - End Of My Life [single] (2017)


*Artist: No Point In Living
*Album: End Of My Life [single]
*Year: 2017
*Genre: Depressive Black Metal
*Country: Japan
*Format: mp3@CBR320kbps
*Size: 22MB

Tracklist:
1. End of My Life 09:41
******************************
Total playing time: 9:41



[more=Technical info]
Input File: 01 - End Of My Life.mp3
Channels : 2
Sample Rate : 44100
Precision : 16-bit
Duration : 00:09:41.54 = 25646090 samples = 43615.8 CDDA sectors
File Size : 23.3M
Bit Rate : 320k
Sample Encoding: MPEG audio (layer I, II or III)
Comments :
Title=End Of My Life
Artist=No Point In Living
Album=End Of My Life (Single)
Tracknumber=01
Year=2017
Genre=Depressive Black Metal

[/more]

Register
(8) artscald, dermarsoran, infiltrator, kimkayoung, Olethros, Ostinato, Rosen, wreak,
Jul 21 2019, 19:33:50 No Point In Living - The Summer (2017)


*Artist: No Point In Living
*Album: The Summer
*Year: 2017
*Genre: Depressive Black Metal
*Country: Japan
*Format: mp3@CBR320kbps
*Size: 87MB

Tracklist:
1. Sunset Glow 05:00
2. Depression and Madness 08:11
3. Rain 03:30
4. Sunflowers 05:44
5. Stars 09:01
6. Fireworks 07:14
******************************
Total playing time: 38:40



[more=Technical info]
Input File: 05 - Stars.mp3
Channels : 2
Sample Rate : 44100
Precision : 16-bit
Duration : 00:09:03.25 = 23957149 samples = 40743.5 CDDA sectors
File Size : 21.8M
Bit Rate : 321k
Sample Encoding: MPEG audio (layer I, II or III)
Comments :
Title=Stars
Artist=No Point In Living
Album=The Summer
Tracknumber=5
Year=2017
Genre=Depressive Black Metal

[/more]

Register
(9) artscald, dermarsoran, infiltrator, kimkayoung, Olethros, Ostinato, Rosen, SilentNidhogg, wreak,
Jul 21 2019, 19:29:06 No Point In Living - The Autumn (2017)


*Artist: No Point In Living
*Album: The Autumn
*Year: 2017
*Genre: Depressive Black Metal
*Country: Japan
*Format: mp3@CBR320kbps
*Size: 108MB

Tracklist:
1. Fallen Leaves 09:26
2. Breathing 05:48
3. Trees 03:44
4. Aching 07:04
5. Autumn Night 07:23
6. The Autumn Moon 13:06
******************************
Total playing time: 46:31



[more=Technical info]
Input File: 04 - Aching.mp3
Channels : 2
Sample Rate : 44100
Precision : 16-bit
Duration : 00:07:04.83 = 18734827 samples = 31862 CDDA sectors
File Size : 17.1M
Bit Rate : 321k
Sample Encoding: MPEG audio (layer I, II or III)
Comments :
Title=Aching
Artist=No Point In Living
Album=The Autumn
Tracknumber=4
Year=2017
Genre=Depressive Black Metal

[/more]

Register
(8) aleon, artscald, dermarsoran, infiltrator, Ostinato, Rosen, SilentNidhogg, wreak,

65 Pages V   1 2 3 > » 
- Lo-Fi Version Support form
Copyrights and abuse reports form
Time is now: 26th August 2019 - 02:06:55