Welcome Guest ( Log In | Register )

История благодарностей участнику TDM ::: Спасибо сказали: 8219 раз(а)
Дата поста: В теме: За сообщение: Спасибо сказали:
Today, 06:58:33 Dusteroid - Stellarium (2019)
Группа даже на metal-archives есть.
Пока дурачок тут только ты.
(1) vosmidesijatye,
Yesterday, 11:09:22 Throne Ov Shiva - The Last Anthem (2019)


*Artist: Throne Ov Shiva
*Album: The Last Anthem
*Year: 2019
*Genre: Black Metal
*Country: Mexico
*Format: mp3@CBR320kbps
*Size: 87MB

Tracklist:
01. The Last Anthem 06:01
02. Sheol 05:06
03. Across The Purity Ov God Part 1 6:44
04. Enchanter Ov Fire 5:42
05. Across The Purity Ov God Part 2 07:53
06. Wolves Guard The Satans Throne 05:59
******************************
Total playing time: 37:25

[more=Technical info]
Input File: 04 - Enchanter Ov Fire.mp3
Channels : 2
Sample Rate : 44100
Precision : 16-bit
Duration : 00:05:42.20 = 15090844 samples = 25664.7 CDDA sectors
File Size : 14.0M
Bit Rate : 327k
Sample Encoding: MPEG audio (layer I, II or III)
Comments :
Title=Enchanter Ov Fire
Artist=Throne Ov Shiva
Album=The Last Anthem
Tracknumber=04
Year=2019
Genre=Black Metal

[/more]

Register
(7) 1968_janeart, alikkon, kim666, lestllk, Olethros, rickzammuto, vovenom,
Yesterday, 09:58:06 Dusteroid - Stellarium (2019)


*Artist: Dusteroid
*Album: Stellarium
*Year: 2019
*Genre: Stoner Metal/Rock
*Country: United Kingdom
*Format: mp3@CBR320kbps
*Size: 101MB

Tracklist:
01. Groundhog 04:35
02. The Buddhist 05:14
03. The More 06:34
04. Animal 05:46
05. Hell Is Other People 06:26
06. Long Way Out 09:39
07. Zorba 06:00
******************************
Total playing time: 44:14



[more=Technical info]
Input File: 03 - The More.mp3
Channels : 2
Sample Rate : 44100
Precision : 16-bit
Duration : 00:06:34.08 = 17379016 samples = 29556.1 CDDA sectors
File Size : 15.8M
Bit Rate : 321k
Sample Encoding: MPEG audio (layer I, II or III)
Comments :
Title=The More
Artist=Dusteroid
Album=Stellarium
Tracknumber=3
Year=2019
Genre=Stoner Metal/Rock

[/more]

Register
(3) marilin, Olethros, Ostinato,
Yesterday, 09:54:03 Black Overdrive - All Evil (2019)


*Artist: Black Overdrive
*Album: All Evil
*Year: 2019
*Genre: Stoner Metal
*Country: Mexico
*Format: mp3@CBR320kbps
*Size: 92MB

Tracklist:
1. No Salvation 05:11
2. Disgusting Obedience 03:46
3. Reign of Emptiness 04:28
4. The Road 03:32
5. All Evil 03:07
6. Your Mistake 02:54
7. United Snakes 04:20
8. Bad Blood 03:20
9. Failure 03:00
10. Devoid of Life 06:27
******************************
Total playing time: 40:05



[more=Technical info]
Input File: 02 - Disgusting Obedience.mp3
Channels : 2
Sample Rate : 44100
Precision : 16-bit
Duration : 00:03:46.08 = 9969952 samples = 16955.7 CDDA sectors
File Size : 9.13M
Bit Rate : 323k
Sample Encoding: MPEG audio (layer I, II or III)
Comments :
Title=Disgusting Obedience
Artist=Black Overdrive
Album=All Evil
Tracknumber=02
Year=2019
Genre=Stoner Metal

[/more]

Register
(3) marilin, Olethros, Ostinato,
Yesterday, 09:50:28 Arkhè - Arkhè (1997)


*Artist: Arkhè
*Album: Arkhè
*Year: 1997
*Genre: Progressive Metal
*Country: Italy
*Format: mp3@CBR320kbps
*Size: 153MB

Tracklist:
1. Chains 08:26
2. Wings of My Freedom 08:33
3. Birth of Soul 08:47
4. The Grey Falcon 09:26
5. The Dark Light (The Other Lights) 06:54
6. Unison 06:05
7. Silence and Fear 04:05
8. La voyant de salon 14:42
******************************
Total playing time: 1:06:58

[more=Technical info]
Input File: 06 - Unison.mp3
Channels : 2
Sample Rate : 44100
Precision : 16-bit
Duration : 00:06:05.29 = 16109421 samples = 27397 CDDA sectors
File Size : 14.6M
Bit Rate : 320k
Sample Encoding: MPEG audio (layer I, II or III)
Comments :
Title=Unison
Artist=Arkhè
Album=Arkhè
Tracknumber=6
Year=1997
Genre=Progressive Metal

[/more]

Register
(1) Olethros,
Yesterday, 09:40:19 Killing Clarence - Living Nightmare (2019)


*Artist: Killing Clarence
*Album: Living Nightmare
*Year: 2019
*Genre: Melodic Thrash Metal
*Country: Canada
*Format: mp3@CBR320kbps
*Size: 100MB

Tracklist:
01. Hard Breath 1:29
02. No Title 7:26
03. Boogeyman 5:54
04. No One Here Is Saving Me 5:59
05. Delayed 3:55
06. The End 5:03
07. Nightmares 5:47
08. Turn It Up 3:56
09. Tell You When 3:58
******************************
Total playing time: 43:27

[more=Technical info]
Input File: 02 - No Title.mp3
Channels : 2
Sample Rate : 44100
Precision : 16-bit
Duration : 00:07:26.09 = 19672613 samples = 33456.8 CDDA sectors
File Size : 17.9M
Bit Rate : 322k
Sample Encoding: MPEG audio (layer I, II or III)
Comments :
Title=No Title
Artist=Killing Clarence
Album=Living Nightmare
Tracknumber=02
Year=2019
Genre=Melodic Thrash Metal

[/more]

Register
(4) boby9052, Olethros, postal67, zhol,
Nov 15 2019, 19:50:07 Лучший советчик МА - Часть 3 (Трэш) - Тур 2, Рейтингование
Итить, тут полыхание с задымлением.
Пребываю в атмосфреа трэшпивного благодушия.
Арморос - заембадзе. dwarf-1.gif
(1) vosmidesijatye,
Nov 15 2019, 10:36:17 Mustasch - Killing It For Life (2019)


*Artist: Mustasch
*Album: Killing It For Life
*Year: 2019
*Genre: Heavy Metal
*Country: Sweden
*Format: mp3@CBR320kbps
*Size: 97MB

Tracklist:
1. Where Angels Fear to Tread 04:07
2. Ransacker 05:12
3. Before a Grave 05:06
4. Freddie Mercury 04:52
5. Go to Hell 04:49
6. Blood In Blood Out 03:35
7. What is Wrong 03:22
8. Garlic and Shots 05:00
******************************
Total playing time: 21:15

[more=Technical info]
Input File: 05 - Go To Hell.mp3
Channels : 2
Sample Rate : 44100
Precision : 16-bit
Duration : 00:04:49.36 = 12760600 samples = 21701.7 CDDA sectors
File Size : 12.1M
Bit Rate : 335k
Sample Encoding: MPEG audio (layer I, II or III)
Comments :
Title=Go To Hell
Artist=Mustasch
Album=Killing It For Life
Tracknumber=5
Year=2019
Genre=Heavy Metal
Discnumber=1

[/more]

Register
(6) demon_e, hammer, marilin, Olethros, Tino, Tular,
Nov 15 2019, 10:24:05 Night To Die - All Evil Crying [ep] (1999)


*Artist: Night To Die
*Album: All Evil Crying [ep]
*Year: 1999
*Genre: Folk/Melodic Death Metal
*Country: Spain
*Format: mp3@CBR320kbps
*Size: 48MB

Tracklist:
1. Childhood Memories 05:44
2. A Piece of Soul 06:54
3. The Storm Is Coming 08:37
******************************
Total playing time: 21:15

[more=Technical info]
Input File: 02 - A Piece Of Soul.mp3
Channels : 2
Sample Rate : 44100
Precision : 16-bit
Duration : 00:06:53.70 = 18244214 samples = 31027.6 CDDA sectors
File Size : 16.5M
Bit Rate : 320k
Sample Encoding: MPEG audio (layer I, II or III)
Comments :
Title=A Piece Of Soul
Artist=Night To Die
Album=All Evil Crying EP
Tracknumber=2
Year=1999
Genre=Folk/Melodic Death Metal

[/more]

Register
(1) Olethros,
Nov 14 2019, 19:53:42 Scenery Channel - Rsk [ep] (2007)


*Artist: Scenery Channel
*Album: Rsk [ep]
*Year: 2007
*Genre: Progressive Metal
*Country: Finland
*Format: mp3@CBR320kbps
*Size: 27MB

Tracklist:
1. Keep It to Yourself 03:34
2. Seeing Only One 03:25
3. Romancing the Chrome 04:14
******************************
Total playing time: 11:13

[more=Technical info]
Input File: 02 - Seeing Only One.mp3
Channels : 2
Sample Rate : 44100
Precision : 16-bit
Duration : 00:03:25.08 = 9043808 samples = 15380.6 CDDA sectors
File Size : 8.20M
Bit Rate : 320k
Sample Encoding: MPEG audio (layer I, II or III)
Comments :
Title=Seeing Only One
Artist=Scenery Channel
Album=RSK EP
Tracknumber=2
Year=2007
Genre=Progressive Metal

[/more]

Register
(2) Olethros, Rosen,
Nov 14 2019, 10:48:42 Лучший советчик МА - Часть 3 (Трэш) - Тур 2, Рейтингование
А што мешает делать, как я (Дезинатор одобряэ): в недрах темы создается пост с перечнем альбомов, куда по мере прослушивания вношу (и там же корректирую) оценки, по завершении дублирую пост со всеми окончательными оценками в хвост темы.
(3) Alexis The Best, Deze, vosmidesijatye,
Nov 14 2019, 06:57:44 Patrick Hemer - The Writing's On The Wall (2019)


*Artist: Patrick Hemer
*Album: The Writing's On The Wall
*Year: 2019
*Genre: Progressive Metal
*Country: Germany
*Format: mp3@CBR320kbps
*Size: 124MB

Tracklist:
1. Obsession 0:51
2. Yesterday’s Burden 5:20
3. Slave to Yourself 4:50
4. Paradigm of Blandness 4:52
5. In the Blood 4:56
6. Pandora’s Box 5:00
7. Double Bind 4:42
8. The Legacy 10:16
9. Burning Hunger 5:47
10. Course for Disaster 6:42
11. Carpe Noctem 5:36
******************************
Total playing time: 58:52

[more=Technical info]
Input File: 04 - Paradigm Of Blandness.mp3
Channels : 2
Sample Rate : 44100
Precision : 16-bit
Duration : 00:04:51.62 = 12860618 samples = 21871.8 CDDA sectors
File Size : 11.8M
Bit Rate : 323k
Sample Encoding: MPEG audio (layer I, II or III)
Comments :
Title=Paradigm Of Blandness
Artist=Patrick Hemer
Album=The Writing’s On The Wall
Tracknumber=4/11
Year=2019
Genre=Progressive Metal
Discnumber=1/1

[/more]

Register
(5) ace73pq, aviacademy, dimitriusk, Olethros, Rosen,
Nov 14 2019, 06:52:46 Onmyo-Za - Ohka Ninpochoh [single] (2018)


*Artist: Onmyo-Za
*Album: Ohka Ninpochoh [single]
*Year: 2018
*Genre: Heavy/Folk Metal
*Country: Japan
*Format: mp3@CBR320kbps
*Size: 85MB

Tracklist:
1. 桜花忍法帖 04:33
2. 甲賀忍法帖 [live version] 04:17
3. 愛する者よ、死に候え [live version] 05:00
4. 蛟龍の巫女 [live version] 05:56
******************************
Total playing time: 19:46

[more=Technical info]
Input File: 01 - 桜花忍法帖.mp3
Channels : 2
Sample Rate : 44100
Precision : 16-bit
Duration : 00:04:30.12 = 11912468 samples = 20259.3 CDDA sectors
File Size : 10.8M
Bit Rate : 320k
Sample Encoding: MPEG audio (layer I, II or III)
Comments :
Title=桜花忍法帖
Artist=陰陽座
Album=桜花忍法帖 (Single)
Tracknumber=1
Year=2018
Genre=Heavy/Folk Metal

[/more]

Register
(7) Cartman223, Femto, gwar, gwynnbleid, Olethros, Reverend, Rosen,
Nov 14 2019, 06:50:40 Onmyo-Za - Ryuuou Shugyoku [compilation] (2013)


*Artist: Onmyo-Za
*Album: Ryuuou Shugyoku [compilation]
*Year: 2013
*Genre: Heavy/Folk Metal
*Country: Japan
*Format: mp3@CBR320kbps
*Size: 696MB

Tracklist:
CD1:
1. 吹けよ風、轟けよ雷 04:56
2. 紺碧の双刃 04:53
3. 組曲「鬼子母神」~徨 04:47
4. 蒼き独眼 04:08
5. がしゃ髑髏 03:43
6. 組曲「九尾」~玉藻前 05:57
7. 組曲「鬼子母神」~鬼拵ノ唄 04:29
8. 紅き群闇 05:10
9. 相剋 03:55
10. 生きもの狂い 04:37
11. 鎮魂の歌 04:46
12. 序曲 01:38
13. 魔王 05:44
14. 骸 04:45
15. 喰らいあう 03:34

CD2:
1. 甲賀忍法帖 (龍凰 Remix) 04:03
2. 組曲「義経」~悪忌判官 05:04
3. 黒衣の天女 04:25
4. 組曲「鬼子母神」~鬼子母人 06:42
5. ひょうすべ 03:44
6. 組曲「鬼子母神」~月光 04:44
7. 紅葉 04:23
8. 道成寺蛇ノ獄 11:29
9. 組曲「鬼子母神」~鬼哭 05:35
10. 慟哭 04:04
11. 焔之鳥 00:49
12. 鳳翼天翔 04:42
13. 悪路王 03:46
14. にょろにょろ 04:27
15. 生きることとみつけたり 04:26
******************************
Total playing time: 2:19:25

[more=Technical info]
Input File: 05 - ひょうすべ.mp3
Channels : 2
Sample Rate : 44100
Precision : 16-bit
Duration : 00:03:43.75 = 9867551 samples = 16781.5 CDDA sectors
File Size : 8.95M
Bit Rate : 320k
Sample Encoding: MPEG audio (layer I, II or III)
Comments :
Title=ひょうすべ
Artist=陰陽座
Album=収録楽曲 『凰』
Tracknumber=5
Year=2013
Genre=Heavy/Folk Metal

[/more]

Register
(4) Cartman223, gwar, Olethros, Rosen,
Nov 14 2019, 06:47:45 Onmyo-Za - Karyou Binga (2016)


*Artist: Onmyo-Za
*Album: Karyou Binga
*Year: 2016
*Genre: Heavy/Folk Metal
*Country: Japan
*Format: mp3@CBR320kbps
*Size: 276MB

Tracklist:
1. 迦陵頻伽 06:01
2. 鸞 04:04
3. 熾天の隻翼 03:45
4. 刃 04:19
5. 廿弐匹目は毒蝮 04:00
6. 御前の瞳に羞いの砂 04:15
7. 轆轤首 04:50
8. 氷牙忍法帖 04:02
9. 人魚の檻 07:06
10. 素戔嗚 05:24
11. 絡新婦 04:33
12. 愛する者よ、死に候え 04:41
13. 風人を憐れむ歌 04:48
******************************
Total playing time: 1:01:48

[more=Technical info]
Input File: 05 - 廿弐匹目は毒蝮.mp3
Channels : 2
Sample Rate : 44100
Precision : 16-bit
Duration : 00:04:00.60 = 10610636 samples = 18045.3 CDDA sectors
File Size : 9.62M
Bit Rate : 320k
Sample Encoding: MPEG audio (layer I, II or III)
Comments :
Title=廿弐匹目は毒蝮
Artist=陰陽座
Album=迦陵頻伽
Tracknumber=5
Year=2016
Genre=Folk/Heavy Metal

[/more]

Register
(6) Cartman223, Femto, gwar, Olethros, Reverend, Rosen,
Nov 13 2019, 11:02:00 Crowbar - The Serpent Only Lies (2016)
ЦИТАТА(vosmidesijatye @ Nov 13 2019, 10:37:36) *
Crowbar’s Kirk Windstein Announces Debut Solo Album ‘Dream in Motion’

Годнота!
(1) vosmidesijatye,
Nov 10 2019, 08:06:50 Abominaut - Illuminaut (2018)


*Artist: Abominaut
*Album: Illuminaut
*Year: 2018
*Genre: Groove Metal
*Country: United States
*Format: mp3@CBR320kbps
*Size: 75MB

Tracklist:
1. Dreamcage 03:12
2. The Caste 03:16
3. You Had One Job To Do 03:29
4. The Business 03:45
5. Throw the Bones 03:07
6. Humans Hunting Humans 03:26
7. Goddamn Monkeys 03:27
8. Spans 06:25
9. Get Down (bonus track) 02:41
******************************
Total playing time: 32:48



[more=Technical info]
Input File: 04 - The Business.mp3
Channels : 2
Sample Rate : 44100
Precision : 16-bit
Duration : 00:03:45.48 = 9943580 samples = 16910.9 CDDA sectors
File Size : 9.06M
Bit Rate : 322k
Sample Encoding: MPEG audio (layer I, II or III)
Comments :
Title=The Business
Artist=Abominaut
Album=Illuminaut
Tracknumber=4
Year=2018
Genre=Groove Metal

[/more]

Register
(4) boby9052, Olethros, Rosen, RotAnus,
Nov 10 2019, 08:02:31 Belfast 6 Pack - One Short Of Halfway (2017)


*Artist: Belfast 6 Pack
*Album: One Short Of Halfway
*Year: 2017
*Genre: Southern Metal/Rock
*Country: United States
*Format: mp3@CBR320kbps
*Size: 103MB

Tracklist:
01. Comfort in Madness 3:57
02. Cataclysm 4:02
03. Copperhead Road 3:52
04. Black Limo 4:00
05. One Short of Halfway 4:05
06. This Time Forgotten 5:24
07. Live Laugh Love Fuck 3:26
08. Bottom Feeder 3:51
09. Fool Hearted 4:45
10. Tales from Beyond 7:11
******************************
Total playing time: 44:33

[more=Technical info]
Input File: 02 - Cataclysm.mp3
Channels : 2
Sample Rate : 44100
Precision : 16-bit
Duration : 00:04:01.68 = 10658088 samples = 18126 CDDA sectors
File Size : 9.79M
Bit Rate : 324k
Sample Encoding: MPEG audio (layer I, II or III)
Comments :
Title=Cataclysm
Artist=Belfast 6 Pack
Album=One Short Of Halfway
Tracknumber=2/10
Year=2017
Genre=Southern Metal

[/more]

Register
(4) Korpse, Kwaad, Olethros, Rosen,
Nov 10 2019, 07:58:17 Belfast 6 Pack - A Shot At The Sun (2019)


*Artist: Belfast 6 Pack
*Album: A Shot At The Sun
*Year: 2019
*Genre: Southern Metal
*Country: United States
*Format: mp3@CBR320kbps
*Size: 99MB

Tracklist:
01. Tell Me While You Sin 03:43
02. Blight 04:11
03. Scream My Love 06:34
04. Constraint 05:16
05. Close The Distance 04:46
06. Hurt 03:28
07. Firecracker Woman 03:16
08. Wasted Away 03:43
09. American Mari 03:18
10. Rise To Fall 05:06
******************************
Total playing time: 43:21

[more=Technical info]
Input File: 06 - Hurt.mp3
Channels : 2
Sample Rate : 44100
Precision : 16-bit
Duration : 00:03:28.08 = 9176328 samples = 15606 CDDA sectors
File Size : 8.38M
Bit Rate : 322k
Sample Encoding: MPEG audio (layer I, II or III)
Comments :
Title=Hurt
Artist=Belfast 6 Pack
Album=A Shot At The Sun
Tracknumber=6
Year=2019
Genre=Southern Metal

[/more]

Register
(3) Korpse, Olethros, Rosen,
Nov 10 2019, 07:54:37 All Of The Dirt All At Once - Vire (2018)


*Artist: All Of The Dirt All At Once
*Album: Vire
*Year: 2018
*Genre: Instrumental Stoner Metal
*Country: Australia
*Format: mp3@CBR320kbps
*Size: 72MB

Tracklist:
1.They Burnt My Car 06:28
2.Bomb It Up, Boy 01:36
3.I Used To See Japanese Doom Bands At Pony 02:23
4.Funnigan's Irish Bar 02:51
5.Don't Push Anyone In The River 03:49
6.Fuckin' Hell (I'm A Banana) 01:45
7.The Lone Pone 03:42
8.Black Dirt 01:39
9.Filler 01:18
10.I'm Just Gonna Go Take A Look Over Here 01:41
11.I Keep Coming Up Over Every Horizon 04:00
******************************
Total playing time: 31:12



[more=Technical info]
Input File: 05 - Don't Push Anyone In The River.mp3
Channels : 2
Sample Rate : 44100
Precision : 16-bit
Duration : 00:03:50.02 = 10144058 samples = 17251.8 CDDA sectors
File Size : 9.25M
Bit Rate : 322k
Sample Encoding: MPEG audio (layer I, II or III)
Comments :
Title=Don't Push Anyone In The River
Artist=All Of The Dirt All At Once
Album=VIRE
Tracknumber=5
Year=2018
Genre=Instrumental Stoner Metal

[/more]

Register
(3) Olethros, Ostinato, Rosen,
Nov 10 2019, 07:47:39 Skullord - In Death [demo] (2019)


*Artist: Skullord
*Album: In Death [demo]
*Year: 2019
*Genre: Stoner/Doom Metal
*Country: Brazil
*Format: mp3@CBR320kbps
*Size: 57MB

Tracklist:
1. (Intro) The Death's Bell Tones 02:34 instrumental
2. Corpse 05:20
3. Procession 04:50
4. Lying in the Frost (Burial) 05:11
5. (Interlude) Ad Sepulcrum 01:09 instrumental
6. The Dead City 04:47
7. (Outro) Beyond the Grave 01:29 instrumental
******************************
Total playing time: 25:20



[more=Technical info]
Input File: 04 - Lying In The Frost (Burial).mp3
Channels : 2
Sample Rate : 44100
Precision : 16-bit
Duration : 00:05:11.40 = 13732564 samples = 23354.7 CDDA sectors
File Size : 12.5M
Bit Rate : 320k
Sample Encoding: MPEG audio (layer I, II or III)
Comments :
Title=Lying In The Frost (Burial)
Artist=Skullord
Album=In Death (Demo)
Tracknumber=4
Year=2019
Genre=Stoner/Doom Metal

[/more]

Register
(4) Olethros, Rosen, thenecromancer, VALERY,
Nov 10 2019, 07:43:56 Hell Came Home - Eve Of Damnation (2019)


*Artist: Hell Came Home
*Album: Eve Of Damnation
*Year: 2019
*Genre: Groove Metal
*Country: United States
*Format: mp3@CBR320kbps
*Size: 103MB

Tracklist:
1. Blinded 4:11
2. Down to None 4:00
3. Drag the Waters 5:02
4. End in Sight 4:27
5. My Dichotomy 4:07
6. Subservient 4:05
7. Butterfly on the Wheel 3:55
8. Reign on You 5:20
9. Eve of Damnation 6:29
10. Forced to Nothing 7:01
******************************
Total playing time: 48:37



[more=Technical info]
Input File: 07 - Butterfly On The Wheel.mp3
Channels : 2
Sample Rate : 44100
Precision : 16-bit
Duration : 00:03:54.73 = 10351417 samples = 17604.5 CDDA sectors
File Size : 9.44M
Bit Rate : 322k
Sample Encoding: MPEG audio (layer I, II or III)
Comments :
Title=Butterfly On The Wheel
Artist=Hell Came Home
Album=Eve Of Damnation
Tracknumber=7
Year=2019
Genre=Groove Metal

[/more]

Register
(3) boby9052, Olethros, Rosen,
Nov 10 2019, 07:37:27 Goathawkbuffalo - Come To Temple (2019)


*Artist: Goathawkbuffalo
*Album: Come To Temple
*Year: 2019
*Genre: Stoner Metal/Rock
*Country: Denmark
*Format: mp3@CBR320kbps
*Size: 92MB

Tracklist:
1. Broken Whore 03:17
2. Come to Temple 03:54
3. Soil n Mud 05:12
4. The Ridge 04:24
5. Pretty Promise 03:35
6. Life is Chaos 03:30
7. Buried Alive 03:58
8. Chuck 02:44
9. Get Defensive 03:22
10. Pound 06:37
******************************
Total playing time: 40:33



[more=Technical info]
Input File: 07 - Buried Alive.mp3
Channels : 2
Sample Rate : 44100
Precision : 16-bit
Duration : 00:03:59.09 = 10543649 samples = 17931.4 CDDA sectors
File Size : 9.56M
Bit Rate : 320k
Sample Encoding: MPEG audio (layer I, II or III)
Comments :
Title=Buried Alive
Artist=Goathawkbuffalo
Album=Come To Temple
Tracknumber=7
Year=2019
Genre=Sludge/Stoner Metal

[/more]

Register
(6) gena, Korpse, Olethros, Rosen, stub888, VALERY,
Nov 10 2019, 07:27:52 Goathawkbuffalo - Release The Beast [ep] (2017)


*Artist: Goathawkbuffalo
*Album: Release The Beast [ep]
*Year: 2017
*Genre: Stoner Metal/Rock
*Country: Denmark
*Format: mp3@CBR320kbps
*Size: 36MB

Tracklist:
1. Love Song Lullaby 03:59
2. Dirty Filthy Names 03:32
3. Mirror Queens 03:21
4. Wanted Man 04:56
******************************
Total playing time: 15:48



[more=Technical info]
Input File: 03 - Mirror Queens.mp3
Channels : 2
Sample Rate : 44100
Precision : 16-bit
Duration : 00:03:21.47 = 8884695 samples = 15110 CDDA sectors
File Size : 8.06M
Bit Rate : 320k
Sample Encoding: MPEG audio (layer I, II or III)
Comments :
Title=Mirror Queens
Artist=Goathawkbuffalo
Album=Release The Beast EP
Tracknumber=3
Year=2017
Genre=Sludge/Stoner Metal

[/more]

Register
(4) Korpse, Olethros, Rosen, stub888,
Nov 10 2019, 07:23:27 Withered Fist - This Is My Mountain [ep] (2019)


*Artist: Withered Fist
*Album: This Is My Mountain [ep]
*Year: 2019
*Genre: Stoner/Doom Metal
*Country: Ireland
*Format: mp3@CBR320kbps
*Size: 60MB

Tracklist:
1. This Is My Mountain 08:42
2. The Dread 06:59
3. The Journey 10:5
******************************
Total playing time: 15:41



[more=Technical info][/img]
Input File: 02 - The Dread.mp3
Channels : 2
Sample Rate : 44100
Precision : 16-bit
Duration : 00:06:59.16 = 18485000 samples = 31437.1 CDDA sectors
File Size : 16.8M
Bit Rate : 320k
Sample Encoding: MPEG audio (layer I, II or III)
Comments :
Title=The Dread
Artist=Withered Fist
Album=This Is My Mountain EP
Tracknumber=2
Year=2019
Genre=Stoner/Doom Metal

[/more]

Register
(5) gena, Olethros, Rosen, stub888, VALERY,

73 Pages V   1 2 3 > » 
- Lo-Fi Version Support form
Copyrights and abuse reports form
Time is now: 18th November 2019 - 07:46:21