Welcome Guest ( Log In | Register )

История благодарностей участнику SyncestrA ::: Спасибо сказали: 6755 раз(а)
Дата поста: В теме: За сообщение: Спасибо сказали:
Yesterday, 19:51:25 Convent - Abandon Your Lord (2009)
Register

[youtube]hz6H-dtfDF4[/youtube]
pray.gif
(2) as71, wreak,
Nov 19 2021, 16:45:42 Veneral Disease - Superior Supremacy (2007)
Register

[youtube]ixC6yQvzfRw[/youtube]
metaler.gif
(1) wreak,
Nov 18 2021, 21:46:44 The Mist - The Hangman Tree (1991)
Morda_Morda
Линк от death77 рабочий!
(1) Morda_Morda,
Nov 14 2021, 19:48:26 Dehuman Reign - Descending Upon The Oblivious (2020)
Register
(2) Jackyl, Xtohar,
Nov 14 2021, 19:48:01 Dehuman Reign - Ascending From Below (2016)
Register

[youtube]qEZ75f4aQzQ[/youtube]
metaler.gif
(2) wreak, Xtohar,
Nov 14 2021, 14:18:02 Call From Subconscious - Sorrow And Avidity [compilation] (2019)


*Artist: Call From Subconscious
*Album: Sorrow And Avidity [compilation]
*Year: 2019
*Genre: Death Metal
*Country: Germany
*Format: mp3@CBR128kbps
*Size: 48MB

Tracklist:
01. Nosferatu 05:39
02. Anguish to Live 06:05
03. Rêve noir 06:11
04. Floris mare in nocte finis 05:33
05. Intro 01:18
06. Sadistic Life Inside 05:50
07. Sorrow and Avidity 06:11
08. Mentally Deceased 08:22
09. White Funeral 04:52
******************************
Total playing time: 50:01



[more=Technical info]
Input File: 01 - Nosferatu.mp3
Channels : 2
Sample Rate : 44100
Precision : 16-bit
Duration : 00:05:39.11 = 14954707 samples = 25433.2 CDDA sectors
File Size : 5.51M
Bit Rate : 130k
Sample Encoding: MPEG audio (layer I, II or III)
Comments :
Title=Nosferatu
Artist=Call from Subconscious
Album=Sorrow and Avidity
Tracknumber=1
Year=2019
Genre=22

[/more]

Register
(4) artscald, metala, Olethros, vyacheslav,
Nov 14 2021, 13:59:26 Brutal Unrest - Trinitas (2017)
Register

[youtube]iVmC0imDaf0[/youtube]
metaler.gif
(2) wendigo, wreak,
Nov 14 2021, 09:57:11 Martyrium Christi - We Will Kill... For You! (2007)
Register

[youtube]L6sDVOSp7us[/youtube]
[youtube]BNSPdlEfj94[/youtube]
pray.gif
(1) wreak,
Nov 14 2021, 09:57:01 Martyrium Christi - Reward (2002)
Register

[youtube]n0BPkZ4121Q[/youtube]
metaler.gif
(1) wreak,
Nov 14 2021, 09:00:28 Astarot - Soul Suicide (2002)
Register

[youtube]https://www.youtube.com/watch?v=DZ8gNdF-KAA&list=OLAK5uy_kyMUKqJZQeLNmiEe4nvGQJtpJ_d8gX8Mw&index=1[/youtube]
metaler.gif
(4) Proteus_666, stumpheavyrock, wanderer73, wreak,
Nov 13 2021, 18:45:55 Diligence - Abundance In Exertion (2018)
Register

[youtube]-jIT23dXbEc[/youtube]
metaler.gif
(1) Marek,
Nov 13 2021, 18:16:21 Infected Virulence - Music Of Melkor (1994)
Register

[youtube]ppkYSkhWdWs[/youtube]
metaler.gif

По ссылке от Asle лежит апковерт.
(4) Marek, MEmethuselah, Mist13Signifier, wreak,
Nov 13 2021, 17:44:19 Perversity - Idolatry (2017)
Register

[youtube]QKtvBKieRv4[/youtube]
metaler.gif
(2) stumpheavyrock, Xtohar,
Nov 13 2021, 17:43:35 Perversity - Words Like Poison (2004)
Register

[youtube]eCuByst0P5I[/youtube]
metaler.gif
(1) wreak,
Nov 13 2021, 17:43:12 Perversity - In The Garment Of Lust (2003)
Register

[youtube]wwXWyD81sCQ[/youtube]
metaler.gif
(1) wreak,
Nov 13 2021, 10:38:53 Insepultus - Considerations [ep] (1995)
Register

[youtube]VIB1OxE8xWM[/youtube]
metaler.gif
(1) Xtohar,
Nov 13 2021, 09:39:21 Astarot - Falling Down (2009)


*Artist: Astarot
*Album: Falling Down
*Year: 2009
*Genre: Groove Death Metal
*Country: Slovakia
*Format: mp3@CBR192kbps
*Size: 68MB

Tracklist:
01. Reborn 04:48
02. Falling Down 03:50
03. Death Mandatory 03:56
04. Bloodwork 05:34
05. Damned Savagery 05:09
06. Neuron 06:27
07. Afterlife 03:26
08. Agony of Forget-Me-Not 05:48
09. Balls Were Shaken 04:14
10. Znamenia (Signs) 04:19
******************************
Total playing time: 47:31



[more=Technical info]
Input File: 01 - Reborn.mp3
Channels : 2
Sample Rate : 44100
Precision : 16-bit
Duration : 00:04:47.73 = 12688717 samples = 21579.5 CDDA sectors
File Size : 6.97M
Bit Rate : 194k
Sample Encoding: MPEG audio (layer I, II or III)
Comments :
Title=Reborn
Artist=Astarot
Album=Falling Down
Tracknumber=1
Year=2009
Genre=Groove Death Metal

[/more]

Register
(13) artscald, caro, chipsgott, jared_wanted, julianotidre, kimkayoung, Marek, metala, Olethros, stumpheavyrock, vyacheslav, Wail, wreak,
Nov 13 2021, 09:35:16 Astarot - Walk Through The Hyperspace [demo] (1993)


*Artist: Astarot
*Album: Walk Through The Hyperspace [demo]
*Year: 1993
*Genre: Technical Death Metal
*Country: Slovakia
*Format: mp3@CBR192kbps
*Size: 58MB

Tracklist:
01. Garden of Time 03:42
02. The Great 03:33
03. Flowers for Algeron 03:08
04. Triumph of Death 03:51
05. Veil 02:18
06. Hyperspace 04:22
07. Her Soul 02:47
08. Retaliation of Taollan 04:13
09. Cold Equations 04:07
10. Sánky 03:54
11. Pod kopytami dážďoviek 02:25
12. The Great (Turbo Version) 02:40
******************************
Total playing time: 41:00



[more=Technical info]
Input File: 01 - Garden of Time.mp3
Channels : 2
Sample Rate : 44100
Precision : 16-bit
Duration : 00:03:41.77 = 9779837 samples = 16632.4 CDDA sectors
File Size : 5.36M
Bit Rate : 193k
Sample Encoding: MPEG audio (layer I, II or III)
Comments :
Title=Garden of Time
Artist=Astarot
Album=Walk Through the Hyperspace
Tracknumber=1
Year=1993
Genre=Technical Death Metal

[/more]

Register
(14) after21allD, artscald, caro, chipsgott, julianotidre, kimkayoung, Marek, metala, Olethros, Proteus_666, stumpheavyrock, vyacheslav, Wail, wreak,
Nov 12 2021, 20:19:33 Abscess - Don't Worry Be Dead [demo] (1993)
Душевно так расколбашивают!
[youtube]qdLKhQkB_As[/youtube]
metaler.gif
(1) spazm,
Nov 12 2021, 19:26:27 Dimæon - Void (2019)
Register

[youtube]2_O2OI9KzCo[/youtube]
20.gif
(1) wanderer73,
Nov 12 2021, 19:07:01 Apophys - Devoratis (2018)
Register

[youtube]uYeo2m8eLJM[/youtube]
metaler.gif
(2) wanderer73, wreak,
Nov 12 2021, 18:48:47 Creation Is Crucifixion - In_Silico (1998)
Register

[youtube]EnIHxxYVe9g[/youtube]
pray.gif
(2) juancarock, wreak,
Nov 12 2021, 18:44:16 Vermin - Define : Divine (2009)
Register


[youtube]d2wS0FMOc_Y[/youtube]
metaler.gif
(2) wanderer73, wreak,
Nov 12 2021, 18:43:57 Vermin - A Nihilistic Swarm (2006)
Register

[youtube]LidzCbnxxqI[/youtube]
metaler.gif
(2) wanderer73, wreak,
Nov 6 2021, 13:23:23 Abortus - Process Of Elimination (2001)
Register

[youtube]S1GP_cRmmgs[/youtube]
(3) stumpheavyrock, wreak, Xtohar,

76 Pages V   1 2 3 > » 
- Lo-Fi Version Support form
Copyrights and abuse reports form
Time is now: 27th November 2021 - 00:17:54