Welcome Guest ( Log In | Register )

История благодарностей участнику SyncestrA ::: Спасибо сказали: 5325 раз(а)
Дата поста: В теме: За сообщение: Спасибо сказали:
May 23 2020, 19:38:49 Solfernus - Neoantichrist (2017)
Интересный разноплановый альбомец!
Register

[youtube]tHF_TpxTijM[/youtube]
20.gif
(1) varlam4,
May 23 2020, 19:28:30 De Arma - Lost, Alien And Forlorn (2013)
Неплохой альбом. Под настроение хорошо заходит. Странно, на форуме ведь столько поклонников современной Кататонии, а тут за редким исключением куча негативных отзывов... hmm.gif
Как по-мне, если бы все альбомы Кататонии после трансформации были похожи на сабж, и далеко не в последнюю очередь вокалом, моей радости океанских берегов было бы мало.
Register

[youtube]_Vqc7q6M8JE[/youtube]
20.gif
(3) Gedankenbetreuer, varlam4, xarmendarizx,
May 23 2020, 11:59:29 Velnezers - II: Drīz Mūsu Gravās Atkal Zāle Dīgs (2019)
Register
(2) varlam4, Авел,
May 23 2020, 11:58:20 Velnezers - I: Es Uzcēlu Durvis Tīrumā (2019)
Register
(2) varlam4, Авел,
May 22 2020, 20:54:17 Iconoclast Contra - Combat Is The Voice Of The Heathen (2010)
Линк из сети / апконверт VBR~256 kbps>320 k:
Register


Настоящих 320 что-то не встречалось...
(2) Feyd, varlam4,
May 22 2020, 16:04:22 Open Grave - Fear (2012)
Register
(3) kim666, varlam4, Wail,
May 22 2020, 12:41:53 Endezzma - The Arcane Abyss (2017)
Register


[youtube]2-lz0UxrRTo[/youtube]
true_black.gif
(3) Cyrci, varlam4, vovenom,
May 21 2020, 15:41:21 Armagedda - Svindeldjup Ättestup (2020)
Добавим зеркал для такого!
Register
(17) donnar, Farung, Fryz, hellbibber, Ice Gnoll, infiltrator, Jackyl, LVXXVL, MadCarrot, mardak666, Mortuusinfernus, Occultas, Pinhead666, plagueofflies, postal67, smes, wtk.412,
May 20 2020, 13:36:35 Godhead Machinery - Aligned To The Grid (2019)
Интересная группа. С удовольствием переслушиваю периодически оба альбома. Жаль, дебют лежит везде в говяном качестве...
Register


[youtube]_PoxUR0bgXs[/youtube]
20.gif
(1) varlam4,
May 20 2020, 07:03:02 Einsicht - Forensic The Mind Sprawler (2014)
Вокалы (женский и мужской) глючные, жаль по музлу не особо.
Те же параметры:
Register

[youtube]EQ1w69O7I48[/youtube]
[youtube]iwZEQVfntRo[/youtube]
(1) varlam4,
May 19 2020, 14:16:23 Leere - Bleak (2015)


*Artist: Leere
*Album: Bleak
*Year: 2015
*Genre: Black Metal
*Country: Switzerland
*Format: mp3@CBR128kbps
*Size: 40MB

Tracklist:
01. Expanding Isolation 05:11
02. Bleak 06:09
03. Roots in a Skull 06:04
04. Jorias 08:10
05. Spiritual Emigration 05:42
06. Empty Infinity 10:39
******************************
Total playing time: 41:55

[more=Technical info]
Input File: 01. Expanding Isolation.mp3
Channels : 1
Sample Rate : 44100
Precision : 16-bit
Duration : 00:05:10.92 = 13711572 samples = 23319 CDDA sectors
File Size : 5.09M
Bit Rate : 131k
Sample Encoding: MPEG audio (layer I, II or III)
Comments :
Title=Expanding Isolation
Artist=Leere
Album=Bleak
Tracknumber=01
Year=2015
Genre=138

[/more]

Register
(9) 1968_janeart, craP_cillA, Ildjarn, infiltrator, kim666, Olethros, Rosen, vasiljev_sergej, Wail,
May 19 2020, 09:50:52 Decrepit - Acrimonium (1997)
Линк из сети / 320 к (проверенные) + Scans:
Register


[youtube]Hn3DJsZWGM4[/youtube]
(4) Bitchkiller, Corpuscul, troll_swamp, Wail,
May 19 2020, 09:43:17 Memoria - Children Of The Doom (2001)
ЦИТАТА(troll_swamp @ May 18 2020, 15:44:50) *
Перелейте пожалуйста 320, если есть возможность, заранее благодарен pray.gif pray.gif pray.gif

Добавил линки на лосе-рип в предыдущем сообщении.
(2) krotovich, troll_swamp,
May 19 2020, 09:30:14 Inverted - There Can Be Only One… (1997)
Register

[youtube]v9BlfTcupmc[/youtube]
metaler.gif
(5) Corpuscul, Mist13Signifier, samokot, thenecromancer, troll_swamp,
May 19 2020, 08:05:46 Saiva - Markerna Bortom (2017)
Register


[youtube]3kMPfMdFxX0[/youtube]
20.gif
(3) Andr, donnar, Urmaaas,
May 18 2020, 18:42:55 Dordeduh - Dar De Duh (2012)
Register
(4) Angry_Chair, milosdjor, thenecromancer, varlam4,
May 18 2020, 15:03:51 Hiidenhauta - 1695 (2018)
Параметры те же (спектры, конечно, просто крофффь из глассс, но чёт нигде не нашёл качества лучше... Может кто богат CD-рипом?):
Register

[youtube]sDPxM5YvhLQ[/youtube]
20.gif
(1) AlexSmith,
May 18 2020, 13:48:43 Fellwarden - Oathbearer (2017)
Смотрю тут и все мпз линки померли. Не порядок.
Register
(4) doomTemplar, nsk2008, satanist666, varlam4,
May 18 2020, 13:37:43 Eudaimony - Futile (2013)
Register


[youtube]OCtW8S359pk[/youtube]
20.gif
(1) varlam4,
May 18 2020, 13:11:01 Dawn - Slaughtersun (Crown Of The Triarchy) (1998)
320 k (FLAC-Rip) + Scans:
Register


[youtube]https://www.youtube.com/watch?v=U8Ot39wGKBU&list=PLUIOJdJ4UrXUEEzkyM8fVa5wpB4AYtvXp[/youtube]
pray.gif
(4) nsk2008, pirata, troll_swamp, Wail,
May 18 2020, 13:10:44 Dawn - Sorgh På Svarte Vingar Fløgh [ep] (1995)
320 k (FLAC-Rip) + Scans. И спектры и звук в этом рипе в много раз лучше, чем в предыдущем посте от Borderline1991.
Register

[youtube]ctFLg5dyzz8[/youtube]
pray.gif
(5) CelticSPB, Golodomor, Moonshtook, nsk2008, SatanMy_Master,
May 18 2020, 13:10:10 Dawn - Nær Solen Gar Nider For Evogher (1994)
320 k (FLAC-Rip) + Scans:
Register


[youtube]https://www.youtube.com/watch?v=LfSSsGFQrok&list=PLecmVSL7rdzskqfaPalLm557bf_9eSWQf[/youtube]
pray.gif
(4) CelticSPB, nsk2008, SatanMy_Master, troll_swamp,
May 18 2020, 12:21:58 Cosmic Church - Vigilia [ep] (2015)
Register

[youtube]e5BvSxHRpEQ[/youtube]
20.gif
(1) varlam4,
May 18 2020, 11:58:04 Atman - Psy Atman (2001)
Register


[youtube]dIfISa08__Q[/youtube]
true_black.gif
(2) varlam4, vasiljev_sergej,
May 18 2020, 11:42:05 Argar - The Flame Of Dark Creation (1997)
Любимый альбом банды! Да и вообще просто обалденнейший релиз, до краёв наполненный монументальными тёмными мелодиями зачаровывающей красоты!
Register

[youtube]l9_2lXn-5Lg[/youtube]
pray.gif
(5) kim666, MortSathynr, troll_swamp, varlam4, Wail,

67 Pages V   1 2 3 > » 
- Lo-Fi Version Support form
Copyrights and abuse reports form
Time is now: 26th September 2020 - 09:12:03