Welcome Guest ( Log In | Register )

История благодарностей участнику SyncestrA ::: Спасибо сказали: 5913 раз(а)
Дата поста: В теме: За сообщение: Спасибо сказали:
Dec 15 2020, 20:58:49 Confined - Forever Scarred (1998)
Те же параметры:
Register


[youtube]bCAAQ0GYraI[/youtube]
metaler.gif
(2) BelfegoR13, lawronchik,
Dec 15 2020, 20:44:08 Ritual - El Blanco (2000)
Короча, всё, что удалось найти - 128 k:
Register

[youtube]PqD6RMyqiUU[/youtube]
banana.gif
(2) infiltrator, stumpheavyrock,
Dec 15 2020, 20:02:54 Shit For Brains - Flesh And Fear [ep] (2016)


*Artist: Shit For Brains
*Album: Flesh And Fear [ep]
*Year: 2016
*Genre: Groove Metal/Metalcore
*Country: Germany
*Format: mp3@CBR128kbps
*Size: 23MB

Tracklist:
01. Flesh and Fear 04:44
02. Unequal Halves 04:23
03. Limb from Limb 04:44
04. Something in the Soil 05:30
05. Touch a Ghost 04:22
******************************
Total playing time: 23:43



[more=Technical info]
Input File: 01 - Flesh and Fear.mp3
Channels : 2
Sample Rate : 44100
Precision : 16-bit
Duration : 00:04:44.25 = 12535249 samples = 21318.5 CDDA sectors
File Size : 4.62M
Bit Rate : 130k
Sample Encoding: MPEG audio (layer I, II or III)
Comments :
Title=Flesh and Fear
Artist=sHIT for bRAINS
Album=Flesh and Fear
Tracknumber=1
Year=2016-01-13
Genre=Groove Metal/Metalcore

[/more]

Register
(4) infiltrator, Olethros, Rosen, varlam4,
Dec 14 2020, 21:00:09 Shit For Brains - Broken Vow (2010)


*Artist: Shit For Brains
*Album: Broken Vow
*Year: 2010
*Genre: Groove Metal/Metalcore
*Country: Germany
*Format: mp3@CBR192kbps
*Size: 52MB

Tracklist:
01. Broken Vow 04:10
02. Pressure 03:20
03. Sleep No More 03:50
04. When You Crave 05:02
05. Pay for Me in Tears 03:41
06. About Nothing 03:56
07. My Silence 05:21
08. Breathing 03:57
09. Search Beneath 03:26
******************************
Total playing time: 36:43



[more=Technical info]
Input File: 01. Broken Vow.mp3
Channels : 2
Sample Rate : 44100
Precision : 16-bit
Duration : 00:04:10.36 = 11040876 samples = 18777 CDDA sectors
File Size : 6.04M
Bit Rate : 193k
Sample Encoding: MPEG audio (layer I, II or III)
Comments :
Title=Broken Vow
Artist=Shit For Brains
Album=Broken Vow
Tracknumber=01
Year=2010
Genre=Mallcore/Groove Metal

[/more]

Register
(6) infiltrator, Olethros, Rosen, Tino, varlam4, wreak,
Dec 13 2020, 13:10:48 Platanus - Exit Error [ep] (2002)


*Artist: Platanus
*Album: Exit Error [ep]
*Year: 2002
*Genre: Technical Thrash/Groove Metal
*Country: Germany
*Format: mp3@CBR192kbps
*Size: 29MB

Tracklist:
01. Wrong Song 02:45
02. Go to Hell 02:20
03. Break 03:03
04. Point of View 02:58
05. No Correction 03:18
06. Don't Open 05:19
07. Exit Error 01:51
******************************
Total playing time: 21:34



[more=Extended info]Спектры, конечно, очень недалеко ушли от 128.
Трек 5 в 128 к.
Если модератор отправит в лоу - вопросов никаких не будет...[/more]

[more=Technical info]
Input File: 02. Go to Hell.mp3
Channels : 2
Sample Rate : 44100
Precision : 16-bit
Duration : 00:02:19.49 = 6151685 samples = 10462 CDDA sectors
File Size : 3.36M
Bit Rate : 193k
Sample Encoding: MPEG audio (layer I, II or III)
Comments :
Title=Go to Hell
Artist=Platanus
Album=Exit Error
Tracknumber=02
Year=2002
Genre=Technical Thrash/Groove Metal

[/more]

Register
(11) after21allD, boby9052, gwar, infiltrator, Marek, metala, Olethros, Rosen, stumpheavyrock, Svafrlami, varlam4,
Dec 13 2020, 08:56:37 Squad - Hope? (2000)


*Artist: Squad
*Album: Hope?
*Year: 2000
*Genre: Groove/Thrash Metal
*Country: Portugal
*Format: mp3@CBR128kbps
*Size: 43MB

Tracklist:
01. Through 03:44
02. Pull the Trigger 04:09
03. Predestination 04:49
04. Rush 04:27
05. Just Hope 05:00
06. On Mother 03:58
07. Orgy 02:05
08. Mad Dog 04:45
09. Suicidal Race 03:47
10. Just One Answer 02:23
11. Existencial Crisis 03:10
******************************
Total playing time: 42:17


[more=Extended info]
[youtube]oF90R1s2YL4[/youtube][/more]


[more=Technical info]
Input File: 01 - Through.mp3
Channels : 2
Sample Rate : 44100
Precision : 16-bit
Duration : 00:03:44.71 = 9909623 samples = 16853.1 CDDA sectors
File Size : 3.79M
Bit Rate : 135k
Sample Encoding: MPEG audio (layer I, II or III)
Comments :
Title=Through
Artist=Squad
Album=Hope?
Tracknumber=1
Year=2000-01-01
Genre=Groove Thrash Metal

[/more]

Register
(10) analbleeding, boby9052, infiltrator, KVRT, Olethros, Rosen, stumpheavyrock, Svafrlami, Tino, varlam4,
Dec 3 2020, 19:10:26 Lykantropi - Tales To Be Told (2020)
Душевно так! Спасибо!
[youtube]2FBygLZOM9o[/youtube]
[youtube]HJg0wzvIDBo[/youtube]
20.gif
(1) Ash_1980,
Nov 23 2020, 20:29:35 Sickle - One (2005)


*Artist: Sickle
*Album: One
*Year: 2005
*Genre: Groove/Nu Metal
*Country: United States
*Format: mp3@VBR230kbps
*Size: 71MB

Tracklist:
01. Self Control 03:22
02. Simple Emptiness 04:18
03. Non Existent 04:12
04. Dislocate 03:06
05. In Hiding 03:37
06. Downfall 03:37
07. My Own 04:32
08. Misno 03:49
09. The End Of Nothing 04:27
10. Dreizehn 05:21
******************************
Total playing time: 40:21



[more=Technical info]
Input File: 01 - self control.mp3
Channels : 2
Sample Rate : 44100
Precision : 16-bit
Duration : 00:03:21.69 = 8894573 samples = 15126.8 CDDA sectors
File Size : 6.27M
Bit Rate : 249k
Sample Encoding: MPEG audio (layer I, II or III)
Comments :
Title=Self Control
Artist=Sickle
Album=One
Tracknumber=01
Year=2005
Genre=Groove/Nu Metal

[/more]

Register
(8) boby9052, chipsgott, gwar, infiltrator, Olethros, Rosen, varlam4, wreak,
Nov 21 2020, 20:24:28 Porkavida - Todo Por Hacer (2000)


*Artist: Porkavida
*Album: Todo Por Hacer
*Year: 2000
*Genre: Groove Metal
*Country: Spain
*Format: mp3@CBR320kbps
*Size: 117MB

Tracklist:
01. Obsesión 04:28
02. Caer al vacío 04:33
03. Cuestión de fe 03:27
04. Jugar a humano 05:16
05. Necesidad 03:27
06. El juego parecía fácil 04:01
07. Todo por hacer 04:46
08. Ira 04:25
09. Nada que objetar 04:52
10. Atrapados 05:15
11. Una respuesta más 06:24
******************************
Total playing time: 50:54

[more=Extended info]Спектры, конечно, дерьмовые, но, полагаю, это единственная версия альбома в сети...[/more]

[more=Technical info]
Input File: 01 - obsesion.mp3
Channels : 2
Sample Rate : 44100
Precision : 16-bit
Duration : 00:04:28.04 = 11820564 samples = 20103 CDDA sectors
File Size : 10.8M
Bit Rate : 322k
Sample Encoding: MPEG audio (layer I, II or III)
Comments :
Title=Obsesion
Artist=Porkavida
Album=Todo Por Hacer
Tracknumber=1
Year=2000
Genre=Groove Metal

[/more]

Register
(5) infiltrator, Olethros, Rosen, varlam4, wreak,
Nov 20 2020, 15:20:25 Substance Of Change - Pleasure [demo] (1996)
Шикарный бэнд! Спасибо за знакомство! На пока раздают на халяву в любом формате!
(2) Proteus_666, varlam4,
Nov 19 2020, 18:19:41 Taf - Give And Take [ep] (2004)


*Artist: Taf
*Album: Give And Take [ep]
*Year: 2004
*Genre: Thrash/Groove Metal
*Country: France
*Format: mp3@CBR320kbps
*Size: 77MB

Tracklist:
01. Fare 03:19
02. Give and Take 03:37
03. Human Anger 05:25
04. Gotaf City 06:05
05. Decizione 06:41
06. Gotaf City (Remix) 04:05
07. Oxygène (Acoustic Remix) 03:51
******************************
Total playing time: 33:03

[more=Technical info]
Input File: 01 - fare.mp3
Channels : 2
Sample Rate : 44100
Precision : 16-bit
Duration : 00:03:19.32 = 8790012 samples = 14949 CDDA sectors
File Size : 8.01M
Bit Rate : 321k
Sample Encoding: MPEG audio (layer I, II or III)
Comments :
Title=Fare
Artist=TAF
Album=Give & Take
Tracknumber=1
Year=2004
Genre=Thrash/Groove Metal

[/more]

Register
(7) boby9052, infiltrator, Olethros, paperfine, Rosen, varlam4, wreak,
Nov 19 2020, 18:15:27 Taf - Break Man [ep] (2001)


*Artist: Taf
*Album: Break Man [ep]
*Year: 2001
*Genre: Thrash/Groove Metal
*Country: France
*Format: mp3@CBR320kbps
*Size: 50MB

Tracklist:
01. Break Man 03:56
02. E dal occhio 04:16
03. La baie 04:20
04. Attentat 05:13
05. Aquarelle 03:48
******************************
Total playing time: 21:33

[more=Technical info]
Input File: 01 - break man.mp3
Channels : 2
Sample Rate : 44100
Precision : 16-bit
Duration : 00:03:56.44 = 10427048 samples = 17733.1 CDDA sectors
File Size : 9.46M
Bit Rate : 320k
Sample Encoding: MPEG audio (layer I, II or III)
Comments :
Title=Break Man
Artist=TAF
Album=Break Man
Tracknumber=1
Year=2001
Genre=Thrash/Groove Metal

[/more]

Register
(8) analbleeding, boby9052, infiltrator, Olethros, paperfine, Rosen, varlam4, wreak,
Nov 19 2020, 17:32:44 Substance Of Change - Parusia [demo] (1999)


*Artist: Substance Of Change
*Album: Parusia [demo]
*Year: 1999
*Genre: Thrash/Groove Metal
*Country: Czech Republic
*Format: mp3@CBR320kbps
*Size: 65MB

Tracklist:
01. Space 04:19
02. Labyrinth of Life 03:47
03. Hellish Chains 04:26
04. ... for the Last Time - Inner Voice ... 04:31
05. Heaven 03:26
06. I Am Wiped Out 03:19
07. Olgoj chorchoj 03:11
******************************
Total playing time: 26:59



[more=Extended info]На bandcamp пока раздают нахаляву в любом формате![/more]

[more=Technical info]
Input File: 01. Space.mp3
Channels : 2
Sample Rate : 44100
Precision : 16-bit
Duration : 00:04:18.19 = 11385959 samples = 19363.9 CDDA sectors
File Size : 10.5M
Bit Rate : 324k
Sample Encoding: MPEG audio (layer I, II or III)
Comments :
Title=Space
Artist=Substance Of Change
Album=Parusia
Tracknumber=1
Year=1999
Genre=Thrash/Groove Metal

[/more]

Register
(8) infiltrator, metala, Olethros, Proteus_666, Rosen, varlam4, wreak, Z28517,
Nov 18 2020, 20:22:07 X-Vision - So Close, So Far (2007)
Register


[youtube]nrQ0jjgFk-U[/youtube]
[youtube]aJj7iXR5wfM[/youtube]
metaler.gif
(2) stumpheavyrock, Tino,
Nov 18 2020, 20:21:33 X-Vision - Time Of The New Slavery (2004)
Всё, что удалось найти - 128 k:
Register


[youtube]9J1VIr0b2c8[/youtube]
metaler.gif
(2) stumpheavyrock, Tino,
Nov 17 2020, 19:46:59 Choicefatal - The Fall (2011)


*Artist: Choicefatal
*Album: The Fall
*Year: 2011
*Genre: Alternative/Groove/Nu Metal
*Country: United States
*Format: mp3@CBR128kbps
*Size: 52MB

Tracklist:
01. Before the Fall 01:39
02. Fall 05:20
03. Isolation 04:45
04. Scorn 05:37
05. Nothing 03:31
06. Becoming 02:03
07. Bipolar 04:59
08. Misguided 04:38
09. Brace Yourself 04:03
10. Friend or Enemy 05:10
11. Things We Need 04:11
12. Aware 04:41
13. Balance 03:38
******************************
Total playing time: 54:15



[more=Technical info]
Input File: 02 - Fall.mp3
Channels : 2
Sample Rate : 44100
Precision : 16-bit
Duration : 00:05:20.44 = 14131184 samples = 24032.6 CDDA sectors
File Size : 5.18M
Bit Rate : 129k
Sample Encoding: MPEG audio (layer I, II or III)
Comments :
Title=Fall
Artist=ChoiceFatal
Album=The Fall
Tracknumber=02
Year=2011
Genre=Alternative/Groove Metal

[/more]

Register
(4) infiltrator, Olethros, Rosen, varlam4,
Nov 17 2020, 19:23:21 Choicefatal - In Sight (2004)


*Artist: Choicefatal
*Album: In Sight
*Year: 2004
*Genre: Groove Metal/Hard Rock
*Country: United States
*Format: mp3@CBR192kbps
*Size: 50MB

Tracklist:
01. Double Crossed 03:26
02. Irate 04:09
03. Rip-Cord 03:56
04. Answer the Question 02:59
05. Choices 03:29
06. Mood Swings 02:50
07. Clouded Vision 03:11
08. Cold 04:19
09. Deathwish 02:33
10. Upper Hand 03:58
******************************
Total playing time: 34:50



[more=Extended info]Спектры, конечно, дерьмовые, но, походу, это единственная версия альбома в сети...[/more]

[more=Technical info]
Input File: 01 - double crossed.mp3
Channels : 2
Sample Rate : 44100
Precision : 16-bit
Duration : 00:03:27.00 = 9128700 samples = 15525 CDDA sectors
File Size : 5.01M
Bit Rate : 193k
Sample Encoding: MPEG audio (layer I, II or III)
Comments :
Title=Double Crossed
Artist=ChoiceFatal
Album=In Sight
Tracknumber=01
Year=2004
Genre=Groove Metal/Hard Rock

[/more]

Register
(6) infiltrator, Marek, Olethros, Rosen, varlam4, wreak,
Nov 17 2020, 18:51:51 Opposite Sides - Lost Inside (2010)


*Artist: Opposite Sides
*Album: Lost Inside
*Year: 2010
*Genre: Melodic Groove Metal
*Country: Italy
*Format: mp3@CBR320kbps
*Size: 116MB

Tracklist:
01. Still Feel You 04:50
02. Leave Me Alone 05:42
03. Save Me 05:25
04. Kill Me Everyday 04:57
05. Something Wrong 00:57
06. Lost Inside 04:46
07. My Spleen 04:59
08. Survive 05:11
09. Electric Breath 04:25
10. It's Up to You 07:38
******************************
Total playing time: 48:50



[more=Extended info]Не смотря на радикальные изменения в стиле и то, я почти не слушаю melodic stuff, за редким исключением, этот альбомец прям понравился![/more]

[more=Technical info]
Input File: 01 - still feel you.mp3
Channels : 2
Sample Rate : 44100
Precision : 16-bit
Duration : 00:04:48.23 = 12710855 samples = 21617.1 CDDA sectors
File Size : 11.6M
Bit Rate : 323k
Sample Encoding: MPEG audio (layer I, II or III)
Comments :
Title=Still Feel You
Artist=Opposite Sides
Album=Lost Inside
Tracknumber=1
Year=2010
Genre=Melodic Groove Metal

[/more]

Register
(7) infiltrator, Marek, Olethros, Rosen, varlam4, wreak, zhol,
Nov 17 2020, 18:44:22 Opposite Sides - Soul Mechanics (2009)


*Artist: Opposite Sides
*Album: Soul Mechanics
*Year: 2009
*Genre: Progressive Death Metal
*Country: Italy
*Format: mp3@CBR192kbps
*Size: 75MB

Tracklist:
01. Soul Mechanics: Enter 00:40
02. The Human Thirst 04:37
03. A Grinded Position of Pray 05:00
04. Chaotic Order 06:05
05. The Mourning Portal 05:46
06. Until the End 04:17
07. No Faith 04:03
08. Infinity 04:28
09. Soul Mechanics: Construction 00:48
10. Breed Machineries 04:13
11. Revenge 04:28
12. Loveless 01:44
13. Soul Mechanics: Coda 05:43
******************************
Total playing time: 51:52



[more=Extended info]Да, здесь спектры не фонтан, но звук гораздо лучше, чем у версии этого альбома в 320 к, найденной на другом ресурсе. Посему залил эту версию.[/more]

[more=Technical info]
Input File: 02 - The Human Thirst.mp3
Channels : 2
Sample Rate : 44100
Precision : 16-bit
Duration : 00:04:36.75 = 12204499 samples = 20756 CDDA sectors
File Size : 6.70M
Bit Rate : 194k
Sample Encoding: MPEG audio (layer I, II or III)
Comments :
Title=The Human Thirst
Artist=Opposite Sides
Album=Soul Mechanics
Tracknumber=2
Year=2009
Genre=Progressive Death Metal

[/more]

Register
(11) infiltrator, kimkayoung, Marek, metala, Olethros, Rosen, VALERY, varlam4, vyacheslav, wreak, Yngwarr,
Nov 17 2020, 17:27:12 Nonpoint Factor - Depression '94 [demo] (1994)
Качёво и разнообразно! С техничным оттенком! Спасибо! Шикарный бэнд!
[youtube]https://www.youtube.com/watch?v=rckaZwz_iGg&list=OLAK5uy_nw7Fp-YMU1asHT3WMmwEmn48RUox7fQgE[/youtube]
pray.gif
(1) Proteus_666,
Nov 16 2020, 20:18:20 Xhausted - X-Ist (1997)
Мощно валят! Спасибо!
[youtube]jJQI7L6lC0I[/youtube]
metaler.gif
(3) infiltrator, Phlebotomized, Proteus_666,
Nov 14 2020, 19:47:57 Imperial Sin - Ritual Murder (2018)
Хороший Groove Death!
Те же параметры / спектры не очень - сцена рип... лучшего качества не нашёл...
Register

[youtube]uRd6JMp7Vn0[/youtube]
metaler.gif
(1) stumpheavyrock,
Nov 14 2020, 18:54:38 Maigra - Encrypted (2017)


*Artist: Maigra
*Album: Encrypted
*Year: 2017
*Genre: Groove/Math Metal
*Country: Poland
*Format: mp3@CBR128kbps
*Size: 51MB

Tracklist:
01. Millenium 05:52
02. Hormone 05:15
03. Matter Decoded 04:35
04. Implant 04:40
05. Self Intrusion 05:51
06. God Encrypted 03:32
07. Air 04:34
08. Seconds, Minutes, Hours... 04:25
09. Chernobylite 04:59
10. NINO 03:34
11. I.F.Y. (Depeche Mode cover) 04:35
******************************
Total playing time: 51:52



[more=Technical info]
Input File: 01. Millenium.mp3
Channels : 2
Sample Rate : 44100
Precision : 16-bit
Duration : 00:05:50.05 = 15437117 samples = 26253.6 CDDA sectors
File Size : 5.85M
Bit Rate : 134k
Sample Encoding: MPEG audio (layer I, II or III)
Comments :
Title=Millenium
Artist=Maigra
Album=Encrypted
Tracknumber=01
Year=2017
Genre=Groove/Math Metal

[/more]

Register
(8) infiltrator, kimkayoung, Lukittaz, metala, Olethros, Rosen, wreak, Yngwarr,
Nov 10 2020, 17:51:59 Gigandhi - Chaaval (1998)
Качал с разных сайтов - везде лежит один и тот же корявый рип. Походу только на даркабисе есть путёвый рип. hung.gif
Register

[youtube]OndkyB44eoQ[/youtube]
20.gif
(1) varlam4,
Nov 10 2020, 17:34:19 Gigandhi - Rafflesia (1996)


*Artist: Gigandhi
*Album: Rafflesia
*Year: 1996
*Genre: Industrial/Post-Metal/Tribal
*Country: Denmark
*Format: mp3@CBR320kbps
*Size: 141MB

Tracklist:
01. Nashwari Pul 05:34
02. Last Wish 05:11
03. No Shame 04:52
04. Avoid 05:24
05. In My Head 08:01
06. Spasmodic 03:52
07. Scornful Lies 04:16
08. Gigandhi 07:14
09. Haze Before The Eyes 06:59
10. Slow Pain 08:07
******************************
Total playing time: 59:30



[more=Technical info]
Input File: 01. Nashwari Pul.mp3
Channels : 2
Sample Rate : 44100
Precision : 16-bit
Duration : 00:05:34.66 = 14758638 samples = 25099.7 CDDA sectors
File Size : 13.5M
Bit Rate : 322k
Sample Encoding: MPEG audio (layer I, II or III)
Comments :
Title=Nashwari Pul
Artist=Gigandhi
Album=Rafflesia
Tracknumber=01
Year=1996
Genre=Industrial Metal/Post-Metal/Tribal

[/more]

Register
(11) DeamonRed, gwar, Hell_Is_Here, Living_Beat, metala, Olethros, Rosen, Svafrlami, varlam4, wreak, Сварог Барг,

71 Pages V   1 2 3 > » 
- Lo-Fi Version Support form
Copyrights and abuse reports form
Time is now: 23rd January 2021 - 14:30:13