Welcome Guest ( Log In | Register )

История благодарностей участнику Velemysl ::: Спасибо сказали: 2562 раз(а)
Дата поста: В теме: За сообщение: Спасибо сказали:
May 12 2017, 10:08:12 White Ward - Futility Report (2017)
заместо тега Depressive я написал бы Jazz smile1.gif
(1) templ,
Mar 17 2017, 12:22:29 D.N.R. (Do Not Resuscitate) - Megalomaniac (2015)
О.Р.Д.Л.О. look.gif
(3) Aresson, DMIYUR, Nattfodd,
May 9 2015, 08:44:59 Krahnholm - The Past Must Be Consigned To The Flames (2015)


*Artist: Krahnholm
*Album: The Past Must Be Consigned To The Flames
*Year: 2015
*Genre: Atmospheric Black Metal
*Country: Russian Federation
*Format: mp3@CBR320kbps
*Size: 79MB

Tracklist:
1. Dark Bloody Rivers 05:55
2. Grim Forest 05:28
3. Pale Hands 07:06
4. For Mist 07:51
5. Coldness of Hearts 05:40
6. I Will Walk with Wolves 06:20
******************************
Total playing time: 38:20

[more=Technical info]
Input File: Krahnholm - Coldness Of Hearts.mp3
Channels : 2
Sample Rate : 44100
Precision : 16-bit
Duration : 00:06:07.08 = 16188052 samples = 27530.7 CDDA sectors
File Size : 14.7M
Bit Rate : 320k
Sample Encoding: MPEG audio (layer I, II or III)
Comments :
Title=Coldness Of Hearts
Artist=Krahnholm
Album=The Past Must Be Consigned To The Flames
Tracknumber=5
Year=2015
Genre=138

[/more]

Register
(20) 1968_janeart, blacky66, Constantinus I, djsema4, Hswhhh, Ildjarn, Moonshtook, Ostinato, QuadenThyrane, randumbum, rom666, Rosen, satanist666, SSBandera, tont, VALERY, varg-38ru, varlam4, vasiljev_sergej, Wolfera,
Mar 27 2015, 07:39:43 Brutto - Underdog (2014)


*Artist: Brutto
*Album: Underdog
*Year: 2014
*Genre: Alternative/Punk Rock
*Country: Belarus
*Format: mp3@CBR320kbps
*Size: 137MB

Tracklist:
01. Brutto 03:59
02. Underdog 02:31
03. Гири 02:23
04. Наша возьме 01:52
05. Веселей 01:53
06. Мяч 03:15
07. I Get Wet 04:49
08. Гарэза 02:53
09. Регби 02:07
10. The Chauffeur 03:48
11. Дворняги 03:22
12. Труд 03:23
13. Воины света (Cover Version) 04:35
14. Железный 03:37
15. Adиda 02:48
16. Kapital 03:50
17. Священный огонь 02:22
18. Гарри (Demo Version) 03:58
19. Будзь смелым! 03:05
******************************
Total playing time: 1:00:30

[more=Technical info]
Input File: 04. Наша возьме.mp3
Channels : 2
Sample Rate : 44100
Precision : 16-bit
Duration : 00:01:52.70 = 4969850 samples = 8452.13 CDDA sectors
File Size : 5.14M
Bit Rate : 365k
Sample Encoding: MPEG audio (layer I, II or III)
Comments :
Title=Наша возьме
Artist=Brutto
Album=Underdog (Переиздание)
Tracknumber=04/<19
Year=2015
Genre=Rock
Discnumber=1/1

[/more]

Register
(2) Moonshtook, Winter Funeral,
Aug 31 2014, 10:17:22 Skyforest - Aftermath (2014)
Парню видимо очень нравится Woods Of Desolation smile1.gif
(1) добрыйКот,
Feb 2 2014, 16:39:16 Yarek Ovich - A Place Of Solitude [ep] (2014)
[youtube]eDPVV-wDUc0[/youtube]
(4) kefka, libertine, nekrokilldozer, RENыч,
Feb 2 2014, 14:17:08 Yarek Ovich - A Place Of Solitude [ep] (2014)


*Artist: Yarek Ovich
*Album: A Place Of Solitude [ep]
*Year: 2014
*Genre: Atmospheric/Depressive Black Metal
*Country: Ukraine
*Format: mp3@CBR320kbps
*Size: 42MB

Tracklist:
1. Don't Release My Hand
2. Places Of Solitude
3. I Shall Not Return
4. When Frost Suddenly Came In Spring
******************************
Total playing time: 20:58

[more=Technical info]
Input File: 02 - Places Of Solitude.mp3
Channels : 2
Sample Rate : 44100
Precision : 16-bit
Duration : 00:04:54.51 = 12987759 samples = 22088 CDDA sectors
File Size : 11.8M
Bit Rate : 320k
Sample Encoding: MPEG audio (layer I, II or III)
Comments :
Title=Places Of Solitude
Artist=Yarek Ovich
Album=A Place of Solitude [EP]
Tracknumber=2
Year=2014
Genre=138

[/more]


Register
(28) 0x13, 666BlackDeath, blacky66, caro, featb, GAS, Kwaad, lestllk, libertine, MaXL, Misanthrope@, Moonshtook, nekrokilldozer, Noxius, Old Vyaine, Orkkh, Pustota, randumbum, RENыч, rimfrost, satanas, Strid, Sunbeam, tont, varlam4, vasiljev_sergej, Victim of fate, Спектр,
Oct 31 2013, 18:09:17 TOBC - What It's Like To Be Undead (2013)


*Artist: TOBC
*Album: What It's Like To Be Undead
*Year: 2013
*Genre: Atmospheric Black Metal
*Country: Poland
*Format: mp3@CBR128kbps
*Size: 52MB

Tracklist:
1. Bleakness in Blossom
2. Deca Dance
3. Distant
4. Good Morning
5. Into the Fray
6. Un
7. Dead Nation
8. Life to Let
9. Revival
******************************
Total playing time: 57:40



Register
(18) 0x13, 1968_janeart, 666BlackDeath, blacky66, craP_cillA, Groundzerocorpse1990, Ildjarn, lestllk, metala, neoatheist, rammmirez, satanist666, ShmiT, tamerz, tont, vasiljev_sergej, ZA670, Госпромнадзор,
Oct 26 2013, 14:44:02 Амезарак - Spring Non Veniet... (2013)
ЦИТАТА
07. Белиал Во Мне


(9) BioMax, CRUNCH, damage666, Evilded, infiltrator, Kwaad, Persy, Thunderbird, waldemardr,
Sep 29 2013, 18:03:57 Lovesilkpalemilk - She Is Half (2013)
чессно больше на пост-панк походит 13.gif
(1) shitsic,
Jul 1 2013, 09:13:30 Deafest & Evergreen Refuge - Grey Rock, Red Earth [split] (2013)


*Artist: Deafest & Evergreen Refuge
*Album: Grey Rock, Red Earth [split]
*Year: 2013
*Genre: Atmospheric Black Metal | Atmospheric Black Metal/Post-Rock
*Country: United States | United States
*Format: mp3@CBR320kbps
*Size: 113MB

Tracklist:
Deafest:
1. 14,000 Feet
2. Snowmelt and the Buds of Spring
3. Rising From the Ridgeline
Evergreen Refuge:
4. Taking Refuge Among River Valleys
5. Beyond the Mountains
6. And it Begins Anew...
******************************
Total playing time: 35:38



[more=Technical info]
Input File: Deafest - Grey Rock, Red Earth - 01 14,000 Feet.mp3
Channels : 2
Sample Rate : 44100
Precision : 16-bit
Duration : 00:08:10.63 = 21636563 samples = 36796.9 CDDA sectors
File Size : 19.8M
Bit Rate : 323k
Sample Encoding: MPEG audio (layer I, II or III)
Comments :
Title=14,000 Feet
Artist=Deafest
Album=Grey Rock, Red Earth
Tracknumber=1
Year=2013

[/more]

Register
(21) 0x13, AnciantSatan, caro, Coroner, craP_cillA, Hell_Is_Here, Kazoth, KKK1488, Lanceatum, princeshr, satanist666, shadow666, SilentNidhogg, smes, Tha, the_cleanser, Thunderbird, umoral666, vasiljev_sergej, wreak, Дерсу Узала,
Jun 13 2013, 21:34:27 Dark Metamorphosis - The Black Masquerade (2012)
ЦИТАТА(smes @ Jun 13 2013, 23:32:35) *
я замечаю в основном такие большие дискографии выпускают американцы

это воспитание фаст фудом дает свои плоды 1488.gif
(1) suseka,
May 7 2013, 22:52:31 Arson Anthem - Insecurity Notoriety (2010)


*Artist: Arson Anthem
*Album: Insecurity Notoriety
*Year: 2010
*Genre: Thrash Metal/Hardcore Punk
*Country: United States
*Format: mp3@CBR320kbps
*Size: 73MB

Tracklist:
1. Naught 00:31
2. Foul Pride 01:56
3. Isolation Militia 01:19
4. More Than One War 02:46
5. Insecurity Notoriety 01:54
6. Pretty Like That 00:47
7. Initial Prick 01:29
8. Crippled Life 01:52
9. Polite Society Blacklist 01:47
10. If You Heard This You Would Hit Me 02:12
11. Hands Off Approach 01:26
12. Has Been / Had Been 01:29
13. Primate Envy 01:27
14. Death of an Idiot 02:00
15. Codependent and Busted 02:46
16. Kleptomania 01:31
17. Teach the Gun to Love the Bullet 03:52
******************************
Total playing time: 31:04



[more=Technical info]
Input File: 02. Foul Pride.mp3
Channels : 2
Sample Rate : 44100
Precision : 16-bit
Duration : 00:01:56.10 = 5120098 samples = 8707.65 CDDA sectors
File Size : 4.85M
Bit Rate : 334k
Sample Encoding: MPEG audio (layer I, II or III)
Comments :
Title=Foul Pride
Artist=Arson Anthem
Album=Insecurity Notoriety [FL, US, Housecore Records, HC-007CD]
Tracknumber=02/17
Year=2010
Genre=Hardcore Punk

[/more]

Register
(5) avkruchinin, jpvalentim, metala, wgs73, wreak,
Jan 11 2013, 21:51:58 Vinterkrig - Ashes Of Non-Existence (2012)
зимуй - воюй!
(1) Kwaad,
Nov 16 2012, 21:56:56 Король Гнет Шут - Две рыбы и стандартный куриный сок (2012)


*Artist: Король Гнет Шут
*Album: Две рыбы и стандартный куриный сок
*Year: 2012
*Genre: Death/Folk Metal/Grindcore
*Country: Russian Federation
*Format: mp3@CBR320kbps
*Size: 48MB

Tracklist:
1. С собой
2. Жбан сусла
3. Bagpipe in ass
4. Ella Pukkala всегда
5. Куриный сок
6. Мою кукурузу
7. Три вора ели рыбу
8. Дубиной ниже пуза
9. Флейтой по рылу
10. Той самой флейтой
******************************
Total playing time: 16:39




[more=Extended info]


Input File: 02 Жбан сусла.mp3
Channels : 2
Sample Rate : 44100
Precision : 16-bit
Duration : 00:01:43.85 = 4579741 samples = 7788.68 CDDA sectors
File Size : 5.27M
Bit Rate : 406k
Sample Encoding: MPEG audio (layer I, II or III)
Comments :
Title=Æáàí ñóñëà
Artist=ГЉ”Г°”ëü ГѓГ­ГҐГІ Г?ГіГІ
Album=Äâå ðûáû ГЁ ñòàíäàðòíûé êóðèíûé Г±”ГЄ
Tracknumber=02/10
Year=2012
Genre=Death/Grind/Folk Metal

[/more]
Register
(14) andreikun, cesar, Diflock, hammer, infiltrator, kjemiker, neoatheist, Scuns, stone88, VALERY, varlam4, voldemar13, Варонъ, Герб,
Oct 20 2012, 17:48:35 Yolwolf - Thorns-Horns (2012)
это новое название проекта Яровит для тех кто в танке
(1) Daarkan,
Sep 30 2012, 17:01:55 Evergreen Refuge - Immersed (2012)


*Artist: Evergreen Refuge
*Album: Immersed
*Year: 2012
*Genre: Instrumental Atmospheric Post-Black Metal
*Country: United States
*Format: mp3@CBR320kbps
*Size: 110MB

Tracklist:
1. Roots Pierce the Earth's Skin 08:53
2. The Fall of Night/The Rise of Day 08:10
3. Spire of Stone/Obscured by Snow 07:53
4. Admiration/Transformation 06:07
5. A Transient Thought 09:34
6. Immersed/Contemplation/At Peace 07:30
******************************
Total playing time: 48:07



[more=Extended info]


Input File: Evergreen Refuge - Immersed - 02 The Fall of Night-The Rise of Day.mp3
Channels : 2
Sample Rate : 44100
Precision : 16-bit
Duration : 00:08:11.10 = 21657290 samples = 36832.1 CDDA sectors
File Size : 19.8M
Bit Rate : 322k
Sample Encoding: MPEG audio (layer I, II or III)
Comments :
Title=The Fall of Night/The Rise of Day
Artist=Evergreen Refuge
Album=Immersed
Tracknumber=2
Year=2012

[/more]

Register
(16) 0x13, bka, Fearon, General, Konst, Mannard, MMMMM, murian, Representer, satanist666, shadow666, sonofsabbath, tont, varlam4, ZloY_GreY, Дерсу Узала,
Aug 1 2012, 13:52:05 Black Dome - Sorg [demo] (2012)


*Artist: Black Dome
*Album: Sorg [demo]
*Year: 2012
*Genre: Black Metal
*Country: Unknown
*Format: mp3@CBR320kbps
*Size: 53MB

Tracklist:
01. The Seal of Chaos (Intro) 5:45
02. Crusaders of Grief 9:06
03. A Coffin for Humanity 7:43
04. Doctrine of Nihilism 0:57
05. Desolation of The Mind (Outro)
******************************
Total playing time: 23:31

[more=Extended info]


Input File: 02 - Crusaders of Grief.mp3
Channels : 2
Sample Rate : 44100
Precision : 16-bit
Duration : 00:05:45.71 = 15245635 samples = 25928 CDDA sectors
File Size : 13.8M
Bit Rate : 320k
Sample Encoding: MPEG audio (layer I, II or III)
Comments :
Title=Crusaders of Grief
Artist=Black Dome
Album=Sorg
Tracknumber=2
Year=2012
Genre=Black Metal

[/more]

Register
(13) artscald, Darkthronefoad, kefka, Lord_Eurynome, Nadja, satanist666, SIAVASH, SilentNidhogg, tont, VALERY, varlam4, vasiljev_sergej, Wolftribes,
Jun 5 2012, 17:58:16 Viter - Wool Fish Love [single] (2012)


*Artist: Viter
*Album: Wool Fish Love [single]
*Year: 2012
*Genre: Folk Metal
*Country: Ukraine
*Format: mp3@CBR320kbps
*Size: 8MB

Tracklist:
01. Wool Fish Love
******************************
Total playing time: 4:15



[more=Extended info]


Input File: Viter – Wool Fish Love.mp3
Channels : 2
Sample Rate : 44100
Precision : 16-bit
Duration : 00:04:14.96 = 11243604 samples = 19121.8 CDDA sectors
File Size : 10.2M
Bit Rate : 320k
Sample Encoding: MPEG audio (layer I, II or III)
Comment : 'Genre=Blues'

[/more]

Register
(19) Andr3y, ArdentDesire, artscald, Baudolino, Cartman223, celt1066, Disgorge666, eternald, Fess, LightWizard, neoatheist, RENыч, satanist666, stone88, tont, Tunez, Uriel, vasilisk, Wotanwatch,
May 3 2012, 13:05:50 Macedon Harriers - Rise Again [demo] (1987)


*Artist: Macedon Harriers
*Album: Rise Again [demo]
*Year: 1987
*Genre: Speed Metal
*Country: Greece
*Format: mp3@CBR129kbps
*Size: 22MB

Tracklist:
1. Sun Of Macedonia Will Rise Again 05:30
2. Weapons Of Holocaust 04:24
3. Infernal Exterminator 03:38
4. Killing Cure 04:50
5. Macedonia The Greece 06:35
******************************
Total playing time: 24:57



Register
(4) artscald, metala, satanas189, varlam4,
May 1 2012, 15:06:43 Nahemoth - Necrocosmos (2010)


*Artist: Nahemoth
*Album: Necrocosmos
*Year: 2010
*Genre: Black Metal
*Country: Ukraine
*Format: mp3@CBR320kbps
*Size: 127MB

Tracklist:
01. Ya! Zat-I Shaitan! (Intro) 01:25
02. Ad Majorem Satani Gloriam 10:55
03. Сияния Омеги Безмолвный Жнец 04:01
04. Потомки Расы Нефелимов - Нахемот 07:21
05. Via Infernali 01:59
06. Integra 04:35
07. Mater Daemonum 08:38
08. Necrocosmos 06:27
09. В Холодных Водах Безвременья (Outro) 01:54
10. Necrocosmos (Instrumental) (Hidden Track) 06:26
******************************
Total playing time: 53:41



Register
(20) Aresson, artscald, Constantinus I, craP_cillA, Darth Alvasarra, iriktaru, kefka, kim666, lordbathor, Reverend, satanas, satanath, satanist666, tont, Tundra, VALERY, varlam4, vasiljev_sergej, Wolftribes, Wormtongue,
May 1 2012, 10:58:47 Zuarasiz - Return To Pagan Realms (2005)


*Artist: Zuarasiz
*Album: Return To Pagan Realms
*Year: 2005
*Genre: Pagan Black Metal
*Country: Russian Federation
*Format: mp3@CBR320kbps
*Size: 80MB

Tracklist:
1. Return To Pagan Realms
2. Пребывая В Священном Забвении
3. По Ту Сторону Заснеженных Гор
4. Парапет, Освещённый Багровой Луной
5. Дорога В Долину Предков
6. Dragonspell
7. Конец Всех Песен
******************************
Total playing time: 35:15

Register
(12) -=Hass=-, ancientlair, artscald, Darth Alvasarra, kefka, neoatheist, oldvarg, satanist666, tont, varlam4, vasiljev_sergej, Wolftribes,
Apr 29 2012, 13:44:25 Deafknife - Demo [demo] (2012)


*Artist: Deafknife
*Album: Demo [demo]
*Year: 2012
*Genre: Atmospheric Post-Black Metal
*Country: Russian Federation
*Format: mp3@CBR320kbps
*Size: 31MB

Tracklist:
1. Стая
2. Короли не правят вечно
3. К Звёздам
******************************
Total playing time: 14:20

Register
(10) artscald, craP_cillA, Eexistance, Evrom, kefka, satanist666, smysl, varg-38ru, varlam4, vasiljev_sergej,
Apr 29 2012, 12:53:03 Мельница - Ангелофрения (2012)
Мыльница smile1.gif

ЦИТАТА
6. Сгори, Москва!
hmm.gif верно же
(2) Beloved_Kadavr, Абигор,
Apr 18 2012, 07:54:55 Warhawk - Groove Of The Damned [ep] (2012)


*Artist: Warhawk
*Album: Groove Of The Damned [ep]
*Year: 2012
*Genre: Industrial/Groove Metal
*Country: Russian Federation
*Format: mp3@CBR320kbps
*Size: 47MB

Tracklist:
1. Groove of the Damned
2. Fall of the Jaguars
3. Polarized (Carcass cover)
4. Day fo Anger [Panzertank legacy]
******************************
Total playing time: 22:51

Preview 1

Register
(6) artscald, avkruchinin, Dark Kyro, stone88, varlam4, wreak,

9 Pages V   1 2 3 > » 
- Lo-Fi Version Support form
Copyrights and abuse reports form
Time is now: 12th November 2019 - 08:45:02