Welcome Guest ( Log In | Register )

История благодарностей участнику Hell_Is_Here ::: Спасибо сказали: 1921 раз(а)
Дата поста: В теме: За сообщение: Спасибо сказали:
Yesterday, 08:32:40 Today Needed
ЦИТАТА(rebornflms95 @ Dec 2 2020, 12:08:20) *

Done!
(1) rebornflms95,
Yesterday, 08:32:08 Avulsed - Bloodcovered [ep] (2001)
Register
(4) infiltrator, rebornflms95, varlam4, wendigo,
Nov 26 2020, 11:44:50 Cultes Des Ghoules & Sepulchral Zeal - Ageless Malediction/Saturnine Templar [split] (2017)
Перезалив. Громкость увеличена.
Register
(2) Occultas, varlam4,
Nov 24 2020, 13:01:05 Hardcore Anal Hydrogen - HyperCut (2018)
Register
(3) kimkayoung, nikolay81, varlam4,
Nov 24 2020, 12:54:47 Hardcore Anal Hydrogen - The Talas Of Satan (2014)


*Artist: Hardcore Anal Hydrogen
*Album: The Talas Of Satan
*Year: 2014
*Genre: Experimental/Avant-Garde Metal/Electronic
*Country: France
*Format: mp3@CBR320kbps
*Size: 48MB

Tracklist:
01. Dhamar 1:56
02. Ramahd 2:01
03. Release The Crackhead 2:40
04. Pentamere 2:02
05. Kalakaka 2:18
06. Rupack 1:37
07. COI 2:12
08. KRR 0:28
09. 한오백년 1:25
10. Coq au vin 1:53
11. Chautal 3:34
******************************
Total playing time: 22:06



[more=Technical info]
Input File: 03-hardcore_anal_hydrogen-release_the_crackhead-237c6afc.mp3
Channels : 2
Sample Rate : 44100
Precision : 16-bit
Duration : 00:02:40.69 = 7086473 samples = 12051.8 CDDA sectors
File Size : 6.43M
Bit Rate : 320k
Sample Encoding: MPEG audio (layer I, II or III)
Comments :
Title=Release the Crackhead
Artist=Hardcore Anal Hydrogen
Album=The Talas of Satan
Tracknumber=3/11
Year=2014
Genre=17

[/more]

Register
(10) A.L.Rapsod, deadterror, gwar, infiltrator, kimkayoung, metala, Olethros, Rosen, varlam4, yuratroll,
Nov 24 2020, 12:53:34 Hardcore Anal Hydrogen - Division Zero (2011)


*Artist: Hardcore Anal Hydrogen
*Album: Division Zero
*Year: 2011
*Genre: Experimental/Avant-Garde Metal/Electronic
*Country: France
*Format: mp3@CBR320kbps
*Size: 48MB

Tracklist:
01. Le Jour De La Purification 2:13
02. 666 Teron 1:25
03. Crème Glacée De Cochon 1:32
04. L'ouest 3:25
05. Boeuf Bourguignon 2:15
06. Carnet Intime D'un Hippie Drogué 1:10
07. Da Funk In Da Shit 2:15
08. RAH! 0:15
09. Fantaisie Pour Piano Préparé (Et Flute A Bec Alto) 1:54
10. Zoy Houy! 1:21
11. Printemps 1982 1:41
12. SM Core 1:23
******************************
Total playing time: 20:49



[more=Technical info]
Input File: 07 - Da funk in da shit.mp3
Channels : 2
Sample Rate : 44100
Precision : 16-bit
Duration : 00:02:15.17 = 5960777 samples = 10137.4 CDDA sectors
File Size : 5.44M
Bit Rate : 322k
Sample Encoding: MPEG audio (layer I, II or III)
Comments :
Title=Da funk in da shit
Artist=Hardcore Anal Hydrogen
Album=Division Zero
Tracknumber=7
Year=2011

[/more]

Register
(8) A.L.Rapsod, gwar, infiltrator, kimkayoung, Olethros, Rosen, varlam4, yuratroll,
Nov 24 2020, 12:52:21 Hardcore Anal Hydrogen - Fork You :​(​)​{ :​|​:​& };: (2009)


*Artist: Hardcore Anal Hydrogen
*Album: Fork You :​(​)​{ :​|​:​& };:
*Year: 2009
*Genre: Experimental/Avant-Garde Metal/Electronic
*Country: France
*Format: mp3@CBR320kbps
*Size: 40MB

Tracklist:
01. We Will Fork You 0:44
02. 2309 2:06
03. Decapitated Succube 1:40
04. Cradle Song 1:38
05. DoWhatTheFuckYouWant 1:11
06. Mercurocum 1:50
07. Verole 2:14
08. Non Sense 1:19
09. Cacastle 2:09
10. 2070s 2:40
******************************
Total playing time: 17:31



[more=Technical info]
Input File: 10 - 2070s.mp3
Channels : 2
Sample Rate : 44100
Precision : 16-bit
Duration : 00:02:40.43 = 7074787 samples = 12032 CDDA sectors
File Size : 6.44M
Bit Rate : 321k
Sample Encoding: MPEG audio (layer I, II or III)
Comments :
Title=2070s
Artist=Hardcore Anal Hydrogen
Album=Fork you :(){ :|:& };:
Tracknumber=10
Year=2009

[/more]

Register
(8) A.L.Rapsod, gwar, infiltrator, kimkayoung, Olethros, Rosen, varlam4, yuratroll,
Nov 18 2020, 06:05:54 Tryggvi - Sharperpetual [single] (2020)


*Artist: Tryggvi
*Album: Sharperpetual [single]
*Year: 2020
*Genre: Breakcore/Funk/Orchestra
*Country: Russian Federation
*Format: mp3@CBR192kbps
*Size: 5MB

Tracklist:
01. Sharperpetual
******************************
Total playing time: 1:58

preview

[more=Technical info]
Input File: 01 - Sharperpetual.mp3
Channels : 2
Sample Rate : 44100
Precision : 16-bit
Duration : 00:01:58.73 = 5235817 samples = 8904.45 CDDA sectors
File Size : 2.85M
Bit Rate : 192k
Sample Encoding: MPEG audio (layer I, II or III)
Comments :
Title=Sharperpetual
Artist=Tryggvi
Album=Sharperpetual
Tracknumber=1
Year=2020

[/more]

Register
(3) gwar, infiltrator, Olethros,
Oct 31 2020, 21:21:35 Ceremonial Bloodbath - The Tides Of Blood (2020)
Трубопревью порадовало. 20.gif Кровавое месиво вперемешку с грязью, ржавчиной и с голосами жертв падающих в мясорубку навстречу смерти. true_black.gif
(3) infiltrator, Metalass, wn129aa,
Sep 25 2020, 15:25:50 Darkatgzebruth - Kaos Rites Ov 9 Angled Darkness [demo] (2017)
[youtube]1m3Tp-LfMN4[/youtube]
(1) Cramloth,
May 30 2020, 15:55:54 Cadaveribus - Open The Gate [ep] (2020)
ЦИТАТА(GRAF @ May 19 2020, 04:11:39) *
Эти японцы не понимают что такое Doom и не умеют его исполнять.


ЦИТАТА(Samaritianin @ May 17 2020, 19:09:19) *
Kohei Azuma All instruments, Vocals

15.gif 15.gif 15.gif Нормальный Death Metal на около думовых скоростях. Не высший пилотаж, но слушается норм. 20.gif
(1) Metalass,
May 30 2020, 08:17:56 Mulla - هل تحتاج إلى [ep] (2020)
ЦИТАТА
Lyrical themes: Islam
22.gif
(1) fylopaloma,
May 5 2020, 07:26:29 S6R6Th6 - Inverted Triangle (2020)
▼6▼6▼6
(2) Occultas, spammer666,
Mar 2 2020, 16:47:09 Umbilicus Mundis - L'ancien Code [ep] (1998)
[youtube]bjlV0HIzrkg[/youtube]
(2) lldma, Occultas,
Mar 2 2020, 10:40:58 Deogen - The Endless Black Shadows Of Abyss [demo] (2020)
Тембр клавиш и сырость в звуке напомнили про дебютный полноформат Gehenna. Тут проще, чем у норвежцев, но всё равно слушается отлично. 20.gif
(1) Sangreal,
Mar 2 2020, 05:26:41 Victory Over The Sun - A Tessitura Of Transfiguration (2020)
ЦИТАТА
This record is the result of hundreds of hours of writing, rewriting, recording, rerecording, mixing and remixing. It also comes from a great deal of soul-searching regarding the process of finding my voice as an artist as well as a trans woman
ЦИТАТА
The band describes its music as "TRANScendental Black Metal"
crazy.gif [left][/left]
(2) infiltrator, Rudolfo_Metal,
Feb 21 2020, 19:40:07 Aphex Twin - Come To Daddy [ep] (1997)
ЦИТАТА(sethurius @ Feb 21 2020, 22:02:44) *
Перезалейте, кому не сложно! 9.gif

Register
(2) Occultas, sethurius,
Dec 11 2019, 07:04:49 Lv-426 - Lv-426 [ep] (2019)


*Artist: LV-426
*Album: LV-426 [ep]
*Year: 2019
*Genre: Cybergrind/Speedcore/Extratone
*Country: International
*Format: mp3@CBR192kbps
*Size: 20MB

Tracklist:
1. Intro 02:33
2. Haunted Horror 01:54
3. Shredded By Nothingness 03:21
4. W Otchłani Kosmosu Piekło Istnieje (In The Abyss Of Space Hell Exists) 04:12
5. Outro 02:06
******************************
Total playing time: 14:06



[more=Extended info]Russian Federation/Poland[/more]

[more=Technical info]
Input File: 04 - W Otchlani Kosmosu Pieklo Istnieje (In The Abyss Of Space Hell Exists).mp3
Channels : 2
Sample Rate : 44100
Precision : 16-bit
Duration : 00:04:12.92 = 11153640 samples = 18968.8 CDDA sectors
File Size : 6.06M
Bit Rate : 192k
Sample Encoding: MPEG audio (layer I, II or III)
Comments :
Title=W Otchlani Kosmosu Pieklo Istnieje (In The Abyss Of Space Hell Exists)
Artist=LV-426
Album=LV-426 (EP)
Tracknumber=1
Year=2019

[/more]

Register
(5) craP_cillA, gwar, infiltrator, Rosen, wreak,
Nov 20 2019, 07:54:38 Remorseful - Exit (2019)
Кому как, мне сие Author & Punisher напомнило. [left][/left] [youtube]jjlBOPLWZyw[/youtube]
(1) denver,
Oct 6 2019, 21:24:01 Goreatorium - Homicidal Ideation [ep] (2019) (2) Samaritianin, satanist666,
Sep 24 2019, 07:07:26 Today Needed
ЦИТАТА(thenecromancer @ Sep 23 2019, 11:25:45) *
A Canorous Quintet - As Tears [ep] (1994)

Done!



Carcass - Livestock Marketplace [single] (2014) Обновите пжлст.
(1) thenecromancer,
Sep 24 2019, 07:02:10 A Canorous Quintet - As Tears [ep] (1994)
Register
(1) thenecromancer,
Aug 9 2019, 09:01:42 Misery Index - Rituals Of Power (2019)
Рипнул флак
Register
(4) as71, infiltrator, Razorbladeswaltz, Язва,
Aug 8 2019, 12:53:42 Various Artists - In Memory Of... Celtic Frost [compilation] (1996)
Отредактировал последний файл (порезал на 3 отдельных трэка).
Register
(1) thenecromancer,
Aug 3 2019, 16:21:09 Flesh Prison - To Satisfy An Artificial Urge (2019)
[youtube]v07YKZiX9nM[/youtube]
(1) METALHUNTER,

34 Pages V   1 2 3 > » 
- Lo-Fi Version Support form
Copyrights and abuse reports form
Time is now: 3rd December 2020 - 11:39:53