Welcome Guest ( Log In | Register )

История благодарностей участнику Hell_Is_Here ::: Спасибо сказали: 1570 раз(а)
Дата поста: В теме: За сообщение: Спасибо сказали:
Jan 30 2018, 16:35:03 Morbid Angel - The Decline Of Rome [ep] (1991)
ЦИТАТА(thenecromancer @ Jun 12 2015, 15:35:06) *
Please re-upload again pray.gif

Register
(2) Aresson, thenecromancer,
Dec 29 2017, 08:59:56 Mortiis - The Great Corrupter (2017)
ЦИТАТА(recber @ Dec 29 2017, 12:46:37) *
Кто умеет сделайте хороший мр3. Спасибо заранее !!!

Cделал. 9.gif Без тэгов!
Register
(6) 99ea, Jurmagund, princeshr, recber, ShmiT, smysl,
Dec 11 2017, 07:53:51 Naamath - Inside The Crypt [demo] (2017)


*Artist: Naamath
*Album: Inside The Crypt [demo]
*Year: 2017
*Genre: Doom Metal/Sludge
*Country: Russian Federation
*Format: mp3@CBR320kbps
*Size: 19MB

Tracklist:
01. Inside The Crypt 03:58
02. The Gate Of Nanna (Beherit Cover) 04:11
******************************
Total playing time: 8:09



[more=Technical info]
Input File: NAAMATH - Inside The Crypt (DEMO) - 01 Inside The Crypt.mp3
Channels : 2
Sample Rate : 44100
Precision : 16-bit
Duration : 00:03:58.60 = 10522172 samples = 17894.9 CDDA sectors
File Size : 9.61M
Bit Rate : 322k
Sample Encoding: MPEG audio (layer I, II or III)
Comments :
Title=Inside The Crypt
Artist=NAAMATH
Album=Inside The Crypt (DEMO)
Tracknumber=1
Year=2017

[/more]

Register
(5) Ostinato, Rosen, thenecromancer, VALERY, varlam4,
Dec 5 2017, 01:29:26 Taake - Baktanker [ep] (2017)
Register
(5) garml2, Ildjarn, oldvarg, Ruben, supremo,
Nov 25 2017, 11:47:58 Nidsang - Into The Womb Of Dissolving Flames (2014)
Register
(1) Tino,
Nov 22 2017, 17:43:07 Gorgonea Prima - Brownfields (2017)
[youtube]W8Ndo4od640[/youtube]
(1) featb,
Nov 5 2017, 06:16:29 Vermilion - Sentience (2015)
Register
(1) dimitriusk,
Nov 1 2017, 16:37:10 Vihan Messu - Kaiken Elämän Raunioilla (2010)
Register
(1) serg1349,
Oct 30 2017, 15:41:42 Fuck The Facts - Abandoned [ep] (2014)
Register
(1) Lanceatum,
Oct 30 2017, 09:55:07 John Zorn Simulacrum - The True Discoveries Of Witches And Demons (2015)
Register
(1) thenecromancer,
Oct 29 2017, 15:53:31 Phlebotomy - Promo Tape [demo] (1993)
Register
(1) thenecromancer,
Oct 27 2017, 13:15:15 Various Artists - Visceral Productions Compilation #1 [best of/compilation] (1995)
Register
(1) Mist13Signifier,
Oct 12 2017, 09:48:23 Holocausto - Seres Inertes (2016)
Register
(1) wgs73,
Oct 12 2017, 00:58:23 Incarnator - Epidemic Prevention [ep] (2014)
Register
(1) Aresson,
Oct 9 2017, 11:40:38 Frost - Demo [demo] (1987)
Register
(1) thenecromancer,
Oct 9 2017, 04:44:16 Erebus Enthroned & Blaze Of Perdition - Accession Of Fire [split] (2013)
Register
(1) kim666,
Oct 6 2017, 06:11:12 Various Artists - Seven Burning Churches - A Tribute To Possessed [best of/compilation] (2016)
Register
(1) thenecromancer,
Sep 21 2017, 06:49:17 Shrine Of Orpheus - Λυκόφως [ep] (2017)
[youtube]qPxoU5houfc[/youtube]
(1) DarkHorde,
Aug 31 2017, 08:23:47 Akercocke - Renaissance In Extremis (2017)
[more="Renaissance in Extremis 3 CD Deluxe edition tracklist"]
1 Disappear
2 Unbound By Sin
3 Insentience
4 First To Leave The Funeral
5 Familiar Ghosts
6 A Final Glance Back Before Departing
7 One Chapter Ends For Another To Begin
8 Inner Sanctum
9 A Particularly Cold September
Bonus Material
1 Inner Darkness
2 About the Beyond
3 Ascension
4 To the Realm of the Universe
5 Black Key Study
6 Devil (1998)
7 Salome (1998)
8 Butchery of the Nazarene (2000)
9 Evil Dead (Death Cover, 2000)
10 Mesmerized (Celtic Frost Cover, 2002)
Sunday Service at the Devil's Church, 1998
1 Hell
2 Nadja
3 Il Giardino di Monte Oliveto Maggiore
4 Marguerite & Gretchen
5 Zulieka
6 Salome
7 Justine
8 He is Risen (2002)
9 Infernal Rites (2002)
10 Masks of God (2004)[/more]
(2) Thrashman, vosmidesijatye,
Aug 9 2017, 16:45:24 Venus Star - Hands On The Threshold [demo] (2012)
Register
(2) kim666, Ostinato,
Jul 30 2017, 11:34:24 Caustic - Moments In The Infinite [ep] (1994)
Register
(3) jorgeguldur, thenecromancer, Un4given,
Jul 19 2017, 04:09:15 Hellnomorf - Depressions (2016)
[youtube]f0J_X0Fta4M[/youtube]
(1) DarkHorde,
Jul 13 2017, 07:46:03 Christ Dismembered - Christ Dismembered (2017)
true_black.gif [left][/left]
(1) smysl,
Jul 6 2017, 18:07:31 Dying Fetus - Wrong One To Fuck With (2017)
Register
(3) Aresson, BlaspherionFLUL, fishish,
May 8 2017, 07:46:09 Scrotoctomy - Born To Eviscerate (2017)
[more="Облога 1200x1200"][/more]
(1) Metalass,

29 Pages V   1 2 3 > » 
- Lo-Fi Version Support form
Copyrights and abuse reports form
Time is now: 18th February 2018 - 09:57:11