Welcome Guest ( Log In | Register )

История благодарностей участнику Hell_Is_Here ::: Спасибо сказали: 1615 раз(а)
Дата поста: В теме: За сообщение: Спасибо сказали:
Jun 16 2018, 15:41:09 Chthe'ilist - Passage Into The Xexanotth [ep] (2018)
ЦИТАТА(Ghostb @ Jun 16 2018, 00:08:00) *
Да и записывать каверы на Crematory как-то зашкварно

В чём заключается зашквар записи кавера на шведский Crematory? look.gif
(2) Chasm, Leshiy666,
Jun 10 2018, 11:00:23 Blood Of Christ - Unrelenting Declivity Of Anguish (Anthology IV) (2018)
17.gif ...A Dream To Remember дико вкатил в своё время. 20.gif Update: Релиз отличается от более раннего творчества. Появилась какая-то неуловимая притрэшованность, звук стал немного легче, но местами проскальзывают фишки с ADTR... Честно говоря, другого ожидал. fear.gif
(1) DarkHorde,
May 7 2018, 06:38:29 Elysian Blaze - The Virtue Of Suffering [single] (2018)
Register
(1) thenecromancer,
Apr 29 2018, 11:33:50 Psygnosis - Lost And Forsaken Vol. 2 - Neptune Leftovers & Aliens On Fury Road OST [best of/compilation] (2018)
Register
(1) HEdge,
Apr 27 2018, 05:39:11 Ingested - The Level Above Human (2018)
Register
(1) okarodb,
Apr 26 2018, 17:33:35 Blood Tsunami - Grave Condition (2018)
На ударных - Фауст (да-да, тот самый). 18.gif [left][/left]
(1) Samaritianin,
Apr 26 2018, 07:07:51 W.A.I.L. - Wisdom Through Agony Into Illumination And Lunacy Vol. II (2018)
ЦИТАТА(skeletron215 @ Apr 15 2018, 19:33:07) *
download limit reached..mirror please

Register
(1) pfk505,
Apr 23 2018, 09:30:47 Cult Of Luna & Julie Christmas - Mariner Live [live] (2018)
Register
(1) thenecromancer,
Apr 1 2018, 08:49:27 Funeral - The Passion Play [demo] (1999)
Register
(1) thenecromancer,
Apr 1 2018, 08:35:24 Agathocles & Rot - Wiped From The Surface - Our Freedom - A Lie [split] (1994)
Register
(1) Tyrone,
Apr 1 2018, 08:32:46 Agathocles & Blood - Traditional Rites [split] (1991)
Register
(2) cancer1974, Tyrone,
Mar 28 2018, 15:15:38 Necrocock - Hudba Z Psychiatrických Pavilonů (2015)
ЦИТАТА

Ссылки скрывать нужно. 23.gif
(2) Borderline1991, thenecromancer,
Mar 16 2018, 05:28:31 Hellwitch - A Night At The 5th [live] (2016)
Register
(1) thenecromancer,
Mar 15 2018, 16:47:26 Præternatura - Symmetry Of The Void (2016)
Register
(3) Extreme Brutal, thenecromancer, varg-38ru,
Mar 14 2018, 08:09:26 Liber Null - I - The Serpent (2016)
Register
(1) varg-38ru,
Mar 14 2018, 07:44:11 Malfeitor & Birch Mountain - Dawn Of Silent Decay [split] (2011)
FLAC + scans
Register
(1) mirotvorets,
Mar 12 2018, 06:20:26 Sadus & Lethal Presence & Xecutioner & Betrayel & R.A.V.A.G.E. - Raging Death [split] (1987)
Register
(2) kimkayoung, thenecromancer,
Mar 10 2018, 08:26:02 Abyssal Vortex - Derelicts Of Perdition [ep] (2015)
Register
(1) SyncestrA,
Mar 7 2018, 16:10:21 Gelding Moon - Lunar Sodom (2012)
Register
(1) thenecromancer,
Feb 19 2018, 19:10:46 Death In Rome - V2 (2018)
20.gif [left][/left][youtube]Dn_VZCeKjoo[/youtube]
(1) abob,
Jan 30 2018, 16:35:03 Morbid Angel - The Decline Of Rome [ep] (1991)
ЦИТАТА(thenecromancer @ Jun 12 2015, 15:35:06) *
Please re-upload again pray.gif

Register
(2) Aresson, thenecromancer,
Dec 29 2017, 08:59:56 Mortiis - The Great Corrupter (2017)
ЦИТАТА(recber @ Dec 29 2017, 12:46:37) *
Кто умеет сделайте хороший мр3. Спасибо заранее !!!

Cделал. 9.gif Без тэгов!
Register
(6) 99ea, Jurmagund, princeshr, recber, ShmiT, smysl,
Dec 11 2017, 07:53:51 Naamath - Inside The Crypt [demo] (2017)


*Artist: Naamath
*Album: Inside The Crypt [demo]
*Year: 2017
*Genre: Doom Metal/Sludge
*Country: Russian Federation
*Format: mp3@CBR320kbps
*Size: 19MB

Tracklist:
01. Inside The Crypt 03:58
02. The Gate Of Nanna (Beherit Cover) 04:11
******************************
Total playing time: 8:09



[more=Technical info]
Input File: NAAMATH - Inside The Crypt (DEMO) - 01 Inside The Crypt.mp3
Channels : 2
Sample Rate : 44100
Precision : 16-bit
Duration : 00:03:58.60 = 10522172 samples = 17894.9 CDDA sectors
File Size : 9.61M
Bit Rate : 322k
Sample Encoding: MPEG audio (layer I, II or III)
Comments :
Title=Inside The Crypt
Artist=NAAMATH
Album=Inside The Crypt (DEMO)
Tracknumber=1
Year=2017

[/more]

Register
(5) Ostinato, Rosen, thenecromancer, VALERY, varlam4,
Dec 5 2017, 01:29:26 Taake - Baktanker [ep] (2017)
Register
(6) garml2, Ildjarn, Narasimha, oldvarg, Ruben, supremo,
Nov 25 2017, 11:47:58 Nidsang - Into The Womb Of Dissolving Flames (2014)
Register
(1) Tino,

30 Pages V   1 2 3 > » 
- Lo-Fi Version Support form
Copyrights and abuse reports form
Time is now: 20th June 2018 - 12:33:35