Welcome Guest ( Log In | Register )

История благодарностей участнику MeatKnife ::: Спасибо сказали: 860 раз(а)
Дата поста: В теме: За сообщение: Спасибо сказали:
Aug 19 2016, 11:12:28 Twelve Foot Ninja - Silent Machine (2012)


*Artist: Twelve Foot Ninja
*Album: Silent Machine
*Year: 2012
*Genre: Progressive Metal/Experimental
*Country: Australia
*Format: mp3@CBR320kbps
*Size: 104MB

Tracklist:
01. Coming For You
02. Kingdom
03. Mother Sky
04. Shuriken
05. Vanguard
06. Deluge
07. Liberation
08. Silent Machine
09. Rogue
10. Myth Of Progress
11. Ain't That A Bitch
12. Luna
******************************
Total playing time: 45:10




[more=Extended info]Twelve Foot Ninja - прогрессив рок группа из Австралии, основана в Мельбурне в 2008-м году.
Команда воплощает оригинальность во всем, что они делают. Их выступления собрали аншлаг в родной стране; более 2,7 миллионов просмотров на Youtube, так же получили хвалебные отзывы от таких известных персон как Майк Портной (Dream Theater / Avenged Sevenfold), Дино Казарес (Fear Factory) и Джос Манжен (Sirius XM).
Их дебютный альбом "Silent Machine" дебютировал на четвертой позиции независимых Австралийских чартах. После чего они отправляются в тур по Австралии где отыграли пару концертов в качестве хедлайнеров, а осенью 2013 года отозвались на просьбы своих поклонников посетить США и Канаду, в сопровождении Periphery.
До своего дебютного альбома, группа выпустила два EP: "New Dawn" в 2008 и
"Smoke Bomb" вышедшая в ноябре 2010.
К каждой песни дебютного альбома прилагается комикс, созданный Кейтом Дроусом, под вдохновением текста и основанный на оригинальной истории о двенадцатифутовом ниндзя (написанной в соавторстве с Стивом Макэем). История повествует о единоличной цели ниндзя восстановить равновесие в мире, идущему к самоуничтожению.
Состав:
Kin - Vocals;
Shane "Russ" Russell - Guitar;
Steve "Stevic" Mackay - Guitar;
Damon - Bass;
Rohan - Drums.[/more]

[more=Technical info]
Input File: 03 - Mother Sky.mp3
Channels : 2
Sample Rate : 44100
Precision : 16-bit
Duration : 00:04:16.13 = 11295377 samples = 19209.8 CDDA sectors
File Size : 10.3M
Bit Rate : 322k
Sample Encoding: MPEG audio (layer I, II or III)
Comments :
Title=Mother Sky
Artist=Twelve Foot Ninja
Album=Silent Machine
Tracknumber=03/12
Year=2012
Discnumber=1/1

[/more]

Register
(5) gwynnbleid, merfo, metala, varlam4, Yarri,
Jul 23 2016, 12:44:39 Circles Around The Sun - Interludes For The Dead (2015)


*Artist: Circles Around The Sun
*Album: Interludes For The Dead
*Year: 2015
*Genre: Progressive Rock
*Country: United States
*Format: mp3@CBR320kbps
*Size: 328MB

Tracklist:
CD 1:
01. Hallucinate A Solution (20:32)
02. Gilbert's Groove (12:21)
03. Kasey's Bones (21:05)
04. Space Wheel (17:27)

CD 2:
01. Ginger Says (11:46)
02. Farewell Franklins (25:05)
03. Saturday's Children (9:25)
04. Scarlotta's Magnolias (10:43)
05. Hat And Cane (11:30)
06. Mountains Of The Moon (5:17)
******************************
Total playing time: 2:25:11


Preview 2

[more=Extended info]Neal Casal - guitar
Adam MacDougall - keyboards
Dan Horne - bass
Mark Levy - drums[/more]

[more=Technical info]
Input File: 01. Ginger Says.mp3
Channels : 2
Sample Rate : 44100
Precision : 16-bit
Duration : 00:11:46.37 = 31150829 samples = 52977.6 CDDA sectors
File Size : 28.3M
Bit Rate : 320k
Sample Encoding: MPEG audio (layer I, II or III)
Comments :
Title=Ginger Says (feat. Neal Casal)
Artist=Circles Around The Sun
Album=Interludes For The Dead (feat. Neal Casal)
Tracknumber=01
Year=2015
Genre=Rock
Discnumber=2

[/more]

Register
(3) Diflock, gwynnbleid, marilin,
Jan 7 2016, 05:18:25 Airbag - The Greatest Show On Earth (2013)
Register
(1) NachtWulf,
Jan 7 2016, 05:13:59 Airbag - Identity (2009)
Register
(1) NachtWulf,
Jan 3 2016, 05:05:39 Airbag - All Rights Removed (2011)
Register
(2) Diflock, NachtWulf,
Dec 30 2015, 07:10:40 All Them Witches - Dying Surfer Meets His Maker (2015)


*Artist: All Them Witches
*Album: Dying Surfer Meets His Maker
*Year: 2015
*Genre: Desert/Psychedelic/Stoner/Blues Rock
*Country: United States
*Format: mp3@CBR320kbps
*Size: 102MB

Tracklist:
01. Call Me Star 3:55
02. El Centro 8:25
03. Dirt Preachers 3:45
04. This is Where It Falls Apart 7:02
05. Mellowing 3:11
06. Open Passageways 3:14
07. Instrumental 2 (Welcome to the Caveman Future) 2:33
08. Talisman 6:07
09. Blood and Sand / Milk and Endless Waters 7:20
******************************
Total playing time: 45:32



[more=Extended info]FLAC-Rip[/more]

[more=Technical info]
Input File: 01 - Call Me Star.mp3
Channels : 2
Sample Rate : 44100
Precision : 16-bit
Duration : 00:03:54.89 = 10358737 samples = 17616.9 CDDA sectors
File Size : 9.40M
Bit Rate : 320k
Sample Encoding: MPEG audio (layer I, II or III)
Comments :
Title=Call Me Star
Artist=All Them Witches
Album=Dying Surfer Meets His Maker
Tracknumber=01
Year=2015
Genre=Desert Rock

[/more]

Register
(4) Emhyr var Emreis, grdrm, marilin, squall8fr,
Dec 30 2015, 07:05:53 All Them Witches - Lightning At The Door (2013)


*Artist: All Them Witches
*Album: Lightning At The Door
*Year: 2013
*Genre: Desert/Psychedelic/Stoner/Blues Rock
*Country: United States
*Format: mp3@CBR320kbps
*Size: 103MB

Tracklist:
01. Funeral For A Great Drunken Bird 04:23
02. When God Comes Back 03:33
03. The Marriage Of Coyote Woman 05:49
04. Swallowed By The Sea 08:22
05. Charles William 05:45
06. The Death Of Coyote Woman 08:12
07. Romany Dagger 02:46
08. Mountain 06:17
******************************
Total playing time: 45:07



[more=Extended info]WEB[/more]

[more=Technical info]
Input File: 01 - Funeral For A Great Drunken Bird.mp3
Channels : 2
Sample Rate : 44100
Precision : 16-bit
Duration : 00:04:23.73 = 11630669 samples = 19780 CDDA sectors
File Size : 10.6M
Bit Rate : 320k
Sample Encoding: MPEG audio (layer I, II or III)
Comments :
Title=Funeral For A Great Drunken Bird
Artist=All Them Witches
Album=Lightning At The Door
Tracknumber=1
Year=2013
Genre=Desert Rock

[/more]

Register
(3) marilin, qpMM, Spunkynut,
Dec 30 2015, 06:58:53 All Them Witches - Our Mother Electricity (2012)


*Artist: All Them Witches
*Album: Our Mother Electricity
*Year: 2012
*Genre: Desert/Psychedelic/Stoner/Blues Rock
*Country: United States
*Format: mp3@CBR320kbps
*Size: 101MB

Tracklist:
01. Heavy/Like A Witch 5:46
02. The Urn 3:35
03. Bloodhounds 3:31
04. Guns 4:25
05. Elk.Blood.Heart 5:51
06. Until It Unwinds 8:38
07. Easy 4:11
08. I Can't Even See Myself 3:11
09. Right Hand 5:51
******************************
Total playing time: 44:59

[more=Extended info]FLAC-Rip[/more]

[more=Technical info]
Input File: 01 - Heavy-Like A Witch.mp3
Channels : 2
Sample Rate : 44100
Precision : 16-bit
Duration : 00:05:46.97 = 15301245 samples = 26022.5 CDDA sectors
File Size : 13.9M
Bit Rate : 320k
Sample Encoding: MPEG audio (layer I, II or III)
Comments :
Title=Heavy/Like A Witch
Artist=All Them Witches
Album=Our Mother Electricity
Tracknumber=01
Year=2012
Genre=Desert Rock

[/more]

Register
(2) marilin, Spunkynut,
Dec 19 2015, 12:53:09 Bjørn Riis - Lullabies In A Car Crash (2014)


*Artist: Bjørn Riis
*Album: Lullabies In A Car Crash
*Year: 2014
*Genre: Progressive Rock
*Country: Norway
*Format: flac
*Size: 268MB

Tracklist:
1. A New Day 4:16
2. Stay Calm 10:09
3. Disappear 6:27
4. Out of Reach 10.01
5. The Chase 7:08
6. Lullabies In a Car Crash 13:26
******************************
Total playing time: 41:26



[more=Extended info]Дебютный сольный альбом гитариста и творческого вдохновителя известной норвежской нео-проговой группы AIRBAG. Музыку этого альбома по достоинству оценят поклонники таких значимых гитаристов прогрессивного рока, как Дэвид Гилмор (Pink Floyd), Стивен Уилсон (Porcupine Tree) и Стивен Розери (ex-Marillion).[/more]

Register
(3) dimitriusk, gwynnbleid, NachtWulf,
Oct 5 2015, 11:27:24 Vildhjarta - Måsstaden (2011)
Instrumental Version 2015

Register
(1) Ostinato,
Jun 30 2015, 13:15:24 Various Artists - Noisia Presents: Ten Years Of Vision Recordings [best of/compilation] (2015)


*Artist: Various Artists
*Album: Noisia Presents: Ten Years Of Vision Recordings [best of/compilation]
*Year: 2015
*Genre: Drum And Bass/Neurofunk/Dubstep
*Country: Netherlands
*Format: flac
*Size: 905MB

Tracklist:
01. Noisia - The Tide 6:35
02. Noisia - Concussion 5:35
03. Noisia - Bad Dreams 5:42
04. Noisia & Mayhem - Exodus 6:52
05. Noisia & Phace - Cannonball 5:31
06. Noisia & Black Sun Empire - Infusion 5:44
07. Noisia - Stigma 5:52
08. Noisia - Thursday 6:03
09. Noisia - Hand Gestures 5:59
10. Noisia - Shellshock 3:50
11. Noisia - Diplodocus 3:45
12. Noisia & Spor - Falling Through 5:42
13. Noisia - Friendly Intentions 5:10
14. Noisia & Phace - Program 5:07
15. Noisia - Could This Be 4:04
16. Noisia & Phace - Imperial 5:43
17. Noisia & The Upbeats - Dustup 5:02
18. The Upbeats - Undertaker 6:34
19. The Upbeats - Beyond Reality 5:22
20. Noisia & Calyx & Teebee - Hyenas 5:23
21. Noisia - Oh Oh 6:46
22. Noisia - Running Blind 5:35
23. Noisia, Mefjus & Hybris - Reptilians 3:34
24. Noisia - Incessant 5:18
******************************
Total playing time: 2:10:48



[more=Extended info]WEB[/more]

Register
(2) acerbus, Wolfera,
May 14 2015, 10:42:20 The Blackwater Fever - In Stereo (2011)


*Artist: The Blackwater Fever
*Album: In Stereo
*Year: 2011
*Genre: Heavy Blues-Rock/Garage Dirty Blues
*Country: Australia
*Format: mp3@CBR320kbps
*Size: 86MB

Tracklist:
01. In Stereo 03:39
02. Love Has Gone Astray 03:11
03. Taking Its Toll 03:51
04. All Night Long 02:54
05. Burn Baby Burn 03:53
06. Sophia's Waltz 03:32
07. Hot Resin 04:53
08. Back Roads 02:42
09. Shot Thru 03:21
10. Who's Been Talking 02:30
11. No Harm 05:44
******************************
Total playing time: 40:10



[more=Technical info]
Input File: 02 - Love Has Gone Astray.mp3
Channels : 2
Sample Rate : 44100
Precision : 16-bit
Duration : 00:03:11.97 = 8465657 samples = 14397.4 CDDA sectors
File Size : 7.73M
Bit Rate : 322k
Sample Encoding: MPEG audio (layer I, II or III)
Comments :
Title=Love Has Gone Astray
Artist=The Blackwater Fever
Album=In Stereo
Tracknumber=2/11
Year=2014
Genre=Р РѕРє
Discnumber=1/1

[/more]

Register
(2) igorzz, marilin,
Apr 4 2015, 01:37:02 Royal Thunder - Crooked Doors (2015)


*Artist: Royal Thunder
*Album: Crooked Doors
*Year: 2015
*Genre: Stoner/Doom Metal
*Country: United States
*Format: mp3@CBR320kbps
*Size: 138MB

Tracklist:
01. Time Machine 7:08
02. Forget You 5:21
03. Wake Up 3:51
04. Floor 5:01
05. The Line 5:20
06. Forgive Me, Karma 5:54
07. Glow 5:45
08. Ear on the Fool 6:31
09. One Day 6:25
10. The Bear I 2:19
11. The Bear II 5:37
******************************
Total playing time: 59:12



[more=Technical info]
Input File: 01. Time Machine.mp3
Channels : 2
Sample Rate : 44100
Precision : 16-bit
Duration : 00:07:08.61 = 18901613 samples = 32145.6 CDDA sectors
File Size : 17.2M
Bit Rate : 322k
Sample Encoding: MPEG audio (layer I, II or III)
Comments :
Title=Time Machine
Artist=Royal Thunder
Album=Crooked Doors
Tracknumber=1/11
Year=2015
Genre=Rock
Discnumber=1/1

[/more]

Register
(14) Buregon, garml2, igorzz, J0k3r, old, Ostinato, qpMM, randumbum, Rosen, SatanicPanzer, VALERY, wreak, xska, Варяг,
Mar 28 2015, 04:42:00 Seasick Steve - Sonic Soul Surfer (2015)


*Artist: Seasick Steve
*Album: Sonic Soul Surfer
*Year: 2015
*Genre: Modern Electric Blues
*Country: United States
*Format: mp3@CBR320kbps
*Size: 128MB

Tracklist:
01. Roy's Gang 6:07
02. Bring It On 3:46
03. Dog Gonna Play 5:17
04. In Peaceful Dreams 2:43
05. Summertime Boy 3:55
06. Swamp Dog 4:52
07. Sonic Soul Boogie 5:21
08. Right On Time 3:21
09. Barracuda '68 4:21
10. We Be Moving 5:21
11. Your Name 6:58
12. Heart Full of Scars 4:06
******************************
Total playing time: 56:08



[more=Technical info]
Input File: 05 - Summertime Boy.mp3
Channels : 2
Sample Rate : 44100
Precision : 16-bit
Duration : 00:03:55.94 = 10404822 samples = 17695.3 CDDA sectors
File Size : 9.51M
Bit Rate : 322k
Sample Encoding: MPEG audio (layer I, II or III)
Comments :
Title=Summertime Boy
Artist=Seasick Steve
Album=Sonic Soul Surfer
Tracknumber=5/12
Year=2015
Genre=Blues

[/more]

Register
(3) Emhyr var Emreis, igorzz, Unkle Jonny,
Mar 15 2015, 01:13:36 Alkaloid - The Malkuth Grimoire (2015)
отличный релиз. "запоминаемость" мною обнаружена smile1.gif
(1) Mplast,
Mar 9 2015, 02:42:10 Sons Of Texas - Baptized In The Rio Grande (2015)


*Artist: Sons Of Texas
*Album: Baptized In The Rio Grande
*Year: 2015
*Genre: Southern/Heavy Metal
*Country: United States
*Format: mp3@CBR320kbps
*Size: 99MB

Tracklist:
01. Never Bury The Hatchet 02:48
02. Pull It And Fire 03:52
03. Baptized In The Rio Grande 03:45
04. Nothing King 03:16
05. The Vestryman 03:33
06. Blameshift 03:48
07. Breathing Through My Wounds 04:07
08. Morals Of The Helpless Kind 03:34
09. Drag The Blade 03:06
10. September 04:29
11. Texas Trim 04:47
******************************
Total playing time: 41:05



[more=Extended info]http://www.sonsoftexasmusic.com/

Sounds like a mixture of 3 Doors Down, 12 Stones, a bit of Godsmack, a bit of Pantera mixed in with some southern charm[/more]

[more=Technical info]
Input File: 02. Pull It And Fire.mp3
Channels : 2
Sample Rate : 44100
Precision : 16-bit
Duration : 00:03:51.57 = 10212413 samples = 17368 CDDA sectors
File Size : 9.33M
Bit Rate : 322k
Sample Encoding: MPEG audio (layer I, II or III)
Comments :
Title=Pull It And Fire
Artist=Sons Of Texas
Album=Baptized In The Rio Grande
Tracknumber=02
Year=2015
Genre=Alternative Rock / Progressive Metal

[/more]

Register

Register
(3) avkruchinin, Rosen, wreak,
Feb 28 2015, 09:20:10 Todd Griffin - Mountain Man (2014)


*Artist: Todd Griffin
*Album: Mountain Man
*Year: 2014
*Genre: Blues/Southern Rock
*Country: United States
*Format: mp3@CBR320kbps
*Size: 84MB

Tracklist:
01. These Days 04:23
02. Voice Of The People 04:28
03. Stand Up 04:18
04. Glory Train 03:37
05. Strength In You 05:15
06. Devil Woman 03:40
07. Mountain Man 03:38
08. Let It Rain 04:01
09. Geronimo 04:50
******************************
Total playing time: 38:10



[more=Technical info]
Input File: 03. Stand Up.mp3
Channels : 2
Sample Rate : 44100
Precision : 16-bit
Duration : 00:04:18.33 = 11392177 samples = 19374.5 CDDA sectors
File Size : 10.4M
Bit Rate : 322k
Sample Encoding: MPEG audio (layer I, II or III)
Comments :
Title=Stand Up
Artist=Todd Griffin
Album=Mountain Man
Tracknumber=3
Year=2014
Genre=Rock

[/more]

Register
(1) igorzz,
Feb 28 2015, 09:05:32 Peace - Happy People (2015)


*Artist: Peace
*Album: Happy People
*Year: 2015
*Genre: Indie Rock
*Country: United Kingdom
*Format: mp3@CBR320kbps
*Size: 146MB

Tracklist:
01. O You 03:48
02. Gen Strange 03:15
03. Lost On Me 03:45
04. Perfect Skin 03:07
05. Happy People 03:47
06. Someday 03:23
07. Money 03:11
08. I'm A Girl 03:00
09. Under The Moon 03:35
10. World Pleasure 06:24
11. Love Me 01:58
12. God's Gloves 03:37
13. Imaginary 04:14
14. Blue 04:07
15. Saturday Girl 02:52
16. Flirting Usa 03:44
17. Fur 03:04
18. The Music Was To Blame 03:50
******************************
Total playing time: 1:04:41



[more=Extended info]Deluxe Edition[/more]

[more=Technical info]
Input File: 07. Money.mp3
Channels : 2
Sample Rate : 44100
Precision : 16-bit
Duration : 00:03:10.61 = 8405901 samples = 14295.8 CDDA sectors
File Size : 7.63M
Bit Rate : 320k
Sample Encoding: MPEG audio (layer I, II or III)
Comments :
Title=Money
Artist=Peace
Album=Happy People
Tracknumber=07
Year=2015
Genre=Indie Rock
Discnumber=1

[/more]

Register
(1) igorzz,
Feb 16 2015, 12:11:40 Venetian Snares - My Love Is A Bulldozer (2014)


*Artist: Venetian Snares
*Album: My Love Is A Bulldozer
*Year: 2014
*Genre: IDM/Neoclassical/Breakcore/Experimental
*Country: Canada
*Format: mp3@CBR320kbps
*Size: 114MB

Tracklist:
01. 10th Circle of Winnipeg 07:00
02. Deleted Poems 03:14
03. 1000 Years 06:14
04. Your Smiling Face 03:05
05. Amazon 04:05
06. My Love Is a Bulldozer 05:09
07. She Runs 07:05
08. 8am Union Station 01:41
09. Shaky Sometimes 03:32
10. Too Far Across 02:46
11. Dear Poet 06:48
12. Your Blanket 03:07
******************************
Total playing time: 53:46



[more=Extended info]With 'My Love Is A Bulldozer', Venetian Snares first new album since 2010's 'My So-Called Life', Aaron Funk surprises yet again, drawing on new ideas and on moods that have only been touched upon in his previous work.

The album seems to have a flowing sense of narrative, something akin to an opera, and unusually Aaron sings songs on it, which reinforces the sense of an emotional journey. Sonically he meshes together sometimes thunderous yet complex drum programming with delicate musical structures, creating, in places, a sense of haunted, atmospheric Jazziness, as well as spiky autumnal strings recalling the gothic orchestral beauty of his previous work.

Right from the start it's clear we're in new territory, with the distressed and violent '10th Circle Of Winnipeg', featuring a world weary jazz singer intoning deep emotional loss between crashing breaks and a corkscrewing bassline, giving us a sense of bewilderment and hurt, whereas 'Deleted Poems', all mournful strings and flamenco guitar, evokes empty desolation. '1000 Years' is the first time we hear Aaron's romantic singing with its orchestral accompaniment, coming across with a slightly medieval quality, cut up dramatically with angry fitful drum programming. On 'Your Smiling Face' Aaron's voice is both lamenting and slightly manic over an empty downbeat drums and piano, switching quickly in mood to the cartoony rush of 'Amazon'.

Title track 'My Love Is A Bulldozer' is as close as Snares gets to a pop song, with its gothic, self-deprecating vocals and dark synth melodies, but this is quickly splintered apart by rushing drumwork and metal stabs leaving you breathless. 'She Runs' sees things get warmer and more romantic, with epic chords and building, fidgety drums, rushing closer and closer in anticipation towards the end as if they're speeding towards a destination. 'Too Far Across', drops back to sparse, lonely lyrics, the vocals yearning to see a distant lover, over sad plucked guitar.

'Dear Poet' is an epic track that starts by working up strings and brass into shivering shapes cut with violent stabs, before amens drop in and the orchestral work becomes a dramatic accompaniment, the melodies darting across the deftly programmed drums. 'Your Blanket' finishes off the album, cold, beatless and balletic, gently building some light into the string arrangements, before the track finally forms together with bombastic brass, suggesting a potentially positive end.[/more]

[more=Technical info]
Input File: 02. Deleted Poems.mp3
Channels : 2
Sample Rate : 44100
Precision : 16-bit
Duration : 00:03:13.94 = 8552534 samples = 14545.1 CDDA sectors
File Size : 7.87M
Bit Rate : 325k
Sample Encoding: MPEG audio (layer I, II or III)
Comments :
Title=Deleted Poems
Artist=Venetian Snares
Album=My Love Is A Bulldozer
Tracknumber=02/12
Year=2014
Genre=IDM, Neoclassical, Breakcore, Experimental

[/more]

Register
(6) Hell_Is_Here, lucifix, stone88, Typhon88, xska, Герб,
Jan 24 2015, 15:49:15 6:33 - Deadly Scenes (2015)
предыдущий понравился больше. слушался как-то свежее..
(1) Mplast,
Jan 24 2015, 02:28:39 Brant Bjork And The Bros - Saved By Magic (2005)


*Artist: Brant Bjork And The Bros
*Album: Saved By Magic
*Year: 2005
*Genre: Stoner/Desert Rock
*Country: United States
*Format: flac
*Size: 555MB

Tracklist:
Fuckin A :
01. Magic vs. Technology (2:03)
02. Get Into It (5:47)
03. Kiss Away (5:35)
04. '73 (3:51)
05. Lil' Bro (3:16)
06. Moda (5:19)
07. Dr. Aura (3:09)
08. Gonna Make The Pony Trap (3:40)
09. Sweet Maria's Dreams (4:49)
10. Inside Of You (3:21)

Fuckin Be :
01. Freak Levels (6:17)
02. Let The Truth Be Known (2:24)
03. Dylan's Fantasy (2:31)
04. The Messengers (4:51)
05. Paradise On Earth (5:31)
06. Cool Abdul (4:50)
07. Avenida de la Revolucion (4:41)
08. Sunshine Of Your Love (6:33)
09. Arcade Eyes (10:10)
******************************
Total playing time: 1:28:38



[more=Extended info]Brant Bjork - Vocals, Guitar
Cortez - Guitar
Michael Peffer - Drums, Percussion
Dylan Roshe - Bass[/more]

Register
(3) Emhyr var Emreis, Galactus, spiritualdecay666,
Jan 22 2015, 12:13:13 Brant Bjork And The Bros - Somera Sol (2007)


*Artist: Brant Bjork And The Bros
*Album: Somera Sol
*Year: 2007
*Genre: Stoner/Desert Rock
*Country: United States
*Format: flac
*Size: 340MB

Tracklist:
01 Turn Yourself On 4:28
02 Love Is Revolution 5:02
03 Shrine Communications 4:03
04 Oblivion 2:55
05 The Native Tongue 5:04
06 Freaks Of Nature 5:49
07 Ultimate Kickback 5:33
08 Chinarosa 4 40
09 Lion Wings 6:30
10 Blood In The Gallery 4:39
******************************
Total playing time: 44:03



Register
(3) Emhyr var Emreis, Galactus, spiritualdecay666,
Jan 22 2015, 09:37:51 Ché - Sounds Of Liberation (2000)


*Artist: Ché
*Album: Sounds Of Liberation
*Year: 2000
*Genre: Stoner/Desert Rock
*Country: United States
*Format: mp3@CBR320kbps
*Size: 83MB

Tracklist:
01 - Hydraulicks
02 - The Knife
03 - Pray for Rock
04 - Sounds of Liberation
05 - Adelante
06 - Blue Demon
07 - The Day the Pirate Retired
******************************
Total playing time: 35:33



[more=Extended info]Brant Bjork - Vocals, Guitar
Dave Dinsmore - Bass
Alfredo Hernández - Drums, Percussion[/more]

[more=Technical info]
Input File: 01 - Hydraulicks.mp3
Channels : 2
Sample Rate : 44100
Precision : 16-bit
Duration : 00:04:22.98 = 11597286 samples = 19723.3 CDDA sectors
File Size : 10.9M
Bit Rate : 330k
Sample Encoding: MPEG audio (layer I, II or III)
Comments :
Title=Hydraulicks
Artist=Che
Album=Sounds of Liberation
Tracknumber=1/7
Year=2000
Genre=Stoner Rock

[/more]

Register
(2) Emhyr var Emreis, Galactus,
Jan 6 2015, 06:58:14 Dead Meadow - Warble Womb (2013)


*Artist: Dead Meadow
*Album: Warble Womb
*Year: 2013
*Genre: Stoner/Psychedelic Rock
*Country: United States
*Format: mp3@CBR320kbps
*Size: 223MB

Tracklist:
01. Six To Let The Light Shine Thru 06:05
02. 1000 Dreams 04:29
03. Mr. Chesty 05:05
04. I'm Cured 06:32
05. Warble Womb I 01:56
06. Yesterday's Blowin' Back 05:05
07. One More Toll Taker 02:52
08. Rains In The Desert 05:32
09. Burn The Here And Now 05:18
10. All Torn Up 05:01
11. In The Thicket 02:57
12. Copper Is Restless (Til It Turns To Gold) 04:18
13. Warble Womb II 02:20
14. This Song Is Over 09:37
15. September 04:03
******************************
Total playing time: 1:11:10



[more=Extended info]FLAC-Rip + Scans [Xemu Rec., XM-1027][/more]

[more=Technical info]
Input File: 02. 1000 Dreams.mp3
Channels : 2
Sample Rate : 44100
Precision : 16-bit
Duration : 00:04:29.40 = 11880672 samples = 20205.2 CDDA sectors
File Size : 10.9M
Bit Rate : 323k
Sample Encoding: MPEG audio (layer I, II or III)
Comments :
Title=1000 Dreams
Artist=Dead Meadow
Album=Warble Womb [Xemu Rec., XM-1027]
Tracknumber=02/15
Year=2013
Genre=Stoner/Psychedelic Rock

[/more]

Register
(3) Diflock, marilin, VALERY,
Jan 6 2015, 06:41:23 Dead Meadow - Feathers (2005)


*Artist: Dead Meadow
*Album: Feathers
*Year: 2005
*Genre: Stoner/Psychedelic Rock
*Country: United States
*Format: mp3@CBR320kbps
*Size: 151MB

Tracklist:
01. Let's Jump In 04:19
02. Such Hawks Such Hounds 03:19
03. Get Up On Down 05:27
04. Heaven 06:05
05. At Her Open Door 05:31
06. Eyeless Gaze All Eye/Don't Tell The Riverman 07:04
07. Stacy's Song 04:06
08. Let It All Pass 05:20
09. Untitled 02:01
10. Through The Gates Of The Sleepy Silver Door 13:44
******************************
Total playing time: 56:56



[more=Extended info]FLAC-Rip + Scans [Matador, OLE 625-2][/more]

[more=Technical info]
Input File: 01. Let\'s Jump In.mp3
Channels : 2
Sample Rate : 44100
Precision : 16-bit
Duration : 00:04:19.79 = 11456695 samples = 19484.2 CDDA sectors
File Size : 10.4M
Bit Rate : 322k
Sample Encoding: MPEG audio (layer I, II or III)
Comments :
Title=Let's Jump In
Artist=Dead Meadow
Album=Feathers [Matador, OLE 625-2]
Tracknumber=01/10
Year=2005
Genre=Stoner/Psychedelic Rock

[/more]

Register
(1) marilin,

10 Pages V   1 2 3 > » 
- Lo-Fi Version Support form
Copyrights and abuse reports form
Time is now: 18th September 2020 - 09:47:59