Welcome Guest ( Log In | Register )

История благодарностей участнику tormoz ::: Спасибо сказали: 1286 раз(а)
Дата поста: В теме: За сообщение: Спасибо сказали:
Today, 14:01:42 Grisvelos - Desperatio (2020)
приятственный альбом с легкой алсирейтинкой
(1) Occultas,
Yesterday, 13:08:44 Aluk Todolo - Occult Rock (2012)
внезапнейшим образом дичайше проникся этой красотой
(1) Darkwood,
Aug 9 2020, 18:23:07 The Wizar'd - Subterranean Exile (2020)
ЦИТАТА(Shub @ Aug 9 2020, 18:17:29) *
Все ссылки чебурнули, перезалейте кто-нибудь.


Register
(2) Shub, Spunkynut,
Aug 1 2020, 18:13:20 Death Alley - Superbia (2018)
ниже ссылка на их первый альбом.
он на мой взгляд слабее следующего, хотя надо заметить, что Supernatural Predator гениальна от первой до последней ноты.

Register


(2) after21allD, infiltrator,
Aug 1 2020, 13:13:59 Death Alley - Superbia (2018)


*Artist: Death Alley
*Album: Superbia
*Year: 2018
*Genre: Hard Rock
*Country: Netherlands
*Format: mp3@CBR320kbps
*Size: 117MB

Tracklist:
1. Daemon 09:10
2. The Chain 03:22
3. Feeding the Lions 07:10
4. Headlights in the Dark 06:42
5. Shake the Coil 03:46
6. Murder Your Dreams 03:02
7. Pilgrim 05:59
8. The Sewage 11:37
******************************
Total playing time: 50:48

Preview 1

[more=Extended info]еще один осколок the devil's blood. теговать сложно, есть что-то от панка, что-то от рок-н-ролла, что-то от стонера, ну и немного психоделии.
хотя по мне - так это старая добрая харда.
есть еще альбом 15-го года, но он мне меньше нравится, поэтому я его затулю простой ссылкой в комментах.[/more]

[more=Technical info]
Input File: 06. Murder Your Dreams.mp3
Channels : 2
Sample Rate : 44100
Precision : 16-bit
Duration : 00:03:02.08 = 8029860 samples = 13656.2 CDDA sectors
File Size : 7.38M
Bit Rate : 324k
Sample Encoding: MPEG audio (layer I, II or III)
Comments :
Title=Murder Your Dreams
Artist=Death Alley
Album=Superbia
Tracknumber=6/8
Year=2018
Genre=Hard Rock, Psychedelic Rock

[/more]

Register
(5) after21allD, Angry_Chair, Branis, infiltrator, Olethros,
Aug 1 2020, 10:35:48 Ûkcheânsâlâwit - Tekipuk [demo] (2020)
https://youtu.be/Iv3mhoZeUrw

индейский блэк (а перед нами именно он, как я понимаю) почему-то всегда крутой.
к примеру тот же invunche никак не хуже видара, при том, что остальные его клоны определенно хуже.
есть у краснокожих в музыке какая-то правильная психоделичная изюминка.
(2) garmonbozia, infiltrator,
Jul 26 2020, 12:57:59 Новости Black-направления
ЦИТАТА(acerbus @ Jul 24 2020, 19:58:05) *
От красной таблетки к красному знамени или когда тебя забанили на бандкампе 1488.gif
[youtube]_qHRa6gk7Y4[/youtube]


говорили умные люди, что автор недоносок, а я не верил 16.gif
(2) infiltrator, Moonshtook,
Jul 19 2020, 18:31:11 Ensiferum - Thalassic (2020)
ЦИТАТА(Aresson @ Jul 19 2020, 18:01:39) *
про чё там хоть написано, а то я не шпрехаю на немецком?


будто я шпрехаю. гугл переводит, что журналисты связались с музыкантами и попросили прокомментировать.
музыканты ответили журналистам, что рембу не знают, в целом огорчены ситуацией, а также против насилия и за мир.
лично мне кажется, что это смешно. прошу прощения, если кому-то это неприятно, я против насилия и за мир (на самом деле нет).
(2) Aresson, infiltrator,
Jul 18 2020, 11:52:31 Vothana - Biệt Động Quân/Commando (2020)
ЦИТАТА(Namnlos @ Jul 17 2020, 22:41:28) *
Можно будет делать тройные сплиты - группа азиатов, группа европейцев и группа негров, все дружно зигуют под здоровенным свастоном.


(1) suseka,
Jul 17 2020, 17:50:46 Vothana - Biệt Động Quân/Commando (2020)
считаю, что музыку необходимо воспринимать строго как религиозное откровение.
никаких музыкантов соответственно не поддерживаю - во-первых, большинство этих паразитов явно считает музыку чем-то иным (например, средством для заработка или вообще для "самовыражения" у самых отбитых), а во-вторых, правильное меньшинство будет проповедовать даже себе в убыток, ибо такова природа откровения.
нодтвейдт чуть ли не в долги влез, чтобы запилить в уровень свой последний концерт.

кроме того, материя - зло. носители не нужны.
(4) garmonbozia, infiltrator, sethurius, sTerLingaz,
Jul 17 2020, 16:24:30 Vothana - Biệt Động Quân/Commando (2020)
ЦИТАТА(Sangreal @ Jul 17 2020, 16:03:13) *
А в чём "угар" и "забава", позвольте осведомиться?
В том, что Личность, обладая Характером и ультраконсервативным мировоззрением (в данном аспекте, я имею в виду), поступает так, как считает единственно верным?
Что он не желает "идти в ногу со временем" (ненавижу эту фразу) и поступаться своими Принципами?
Что этот его Поступок диаметрально противоположен вашему современному рыночно-трендовому мышлению?


ну справедливости ради, в том, чтобы стянуть из сети архив, нет ничего рыночно-трендового.
и я прекрасно помню бурления гoвeн на эту тему лет десять назад.
а кое-кто до сих пор придерживается той точки зрения, что перацтво - это зло, за которое полагается расстрел со ссылкой в ад и израиль.
и не очень понятно, чем упомянутая Личность отличается от подобных дятлов.

непосредственно по сабжу: слушать эту х-ню я, естественно, не собираюсь. гoвнa и так слишком много.
(5) Dargaud, Forrrrest, infiltrator, ingram, sTerLingaz,
Jul 13 2020, 18:36:03 Waal - The Chasm [ep] (2020)
оголтелый, наглухо отбитый атмосферик. кайф.
(2) Daale, infiltrator,
Jul 13 2020, 15:51:52 Wędrowcy~Tułacze~Zbiegi - Berliner Vulkan [ep] (2020)
dead lives matters
(2) infiltrator, Kwaad,
Jul 4 2020, 11:04:59 Tarot - The Warrior's Spell [best of/compilation] (2015)
Register


неплохой психоккультный стафф.
не имеющий, слава темным богам, ничего общего с гомосячьим чухонским хевиметалом.
(1) stumpheavyrock,
Jun 25 2020, 19:28:22 King Dude - Full Virgo Moon (2020)
ЦИТАТА(Shub @ Jun 25 2020, 19:17:02) *
Не ясно, о каком вообще оверхайпе речь идет. Я бы и не узнал, что такой исполнитель есть вообще, если бы в релизах тут совершенно случайно не увидел его дурацкое название.


этот дядя умудрился совершенно позорным образом подхайпиться на taake, например. на taake, карл.

такой вот люциферианец, кароче, чисто для политкорректной публики, а она души в нем не чает, инфа соточка.

один из адекватных комментариев (ему там хорошо в панамку напихали):

Jon Nödtveidt (218!) was a Luciferian who was willing to send himself to the Void. King Dude's a 'Luciferian' who isn't willing to tour with a pretty standard black metal band.
You misuse the name.
(4) acerbus, HviteGuden, infiltrator, wolverine,
Jun 21 2020, 18:53:24 Nexion - Seven Oracles (2020)
прекрасный альбом, флагманский уровень а-ля Zhrine, Svartidauði и Sinmara, но со своим лица необщим выражением.
(2) abob, Metalass,
Jun 7 2020, 15:16:21 Burshtyn - Чортория (2020)
ЦИТАТА(RADeus @ Jun 7 2020, 14:55:51) *
Хеллоу! Неадекватный Радеус на связи. В той теме были перманентные сплошные холивары. Сначала она просто чистилась, затем раздавались баны, но всё это не давало результата. И продолжалось это не одну неделю или месяц. После очередного такого cpача я её просто закрыл. Мне без разницы, у кого где и от чего подгорает, а также нравятся ли кому-то мои действия или мнение.
Впрочем, прошло достаточно времени, и я открою тему. 5 лет уже прошло, во дела. Я надеюсь, что всем понятно, чего не нужно делать в этой теме. Покедова.


какие нахрен холивары, я прекрасно помню диспозицию.
суть холиваров состояла в том, что мышебратья набигали в тему потролеть и внезапно загорались.
но ок, замнем для ясности и засечем время до следующего набега. вряд ли кто-то с тех пор поумнел.
(1) suseka,
Jun 7 2020, 07:58:04 Burshtyn - Чортория (2020)
ЦИТАТА(Фо @ Jun 6 2020, 21:23:06) *
Украинский "блек" полное sucks.


скажи это джейми. я кстати тоже раньше не котировал, но лет десять назад поумнел.
к тому же всего одна капля украинского блэка разрывает крымских хомячков на куски.

тоже жду качества, обязательно послушаю.
(3) garmonbozia, infiltrator, suseka,
May 24 2020, 18:25:07 Ulcerate - Stare Into Death And Be Still (2020)
ЦИТАТА(6666666 @ May 24 2020, 18:23:37) *
О, Темпл явился, который обещал не возвращаться в обоих своих обличиях.


я тебе ничего не обещал, сынок.
(2) garmonbozia, infiltrator,
May 24 2020, 17:46:26 Dool - Summerland (2020)


*Artist: Dool
*Album: Summerland
*Year: 2020
*Genre: Occult Rock
*Country: Netherlands
*Format: mp3@CBR320kbps
*Size: 151MB

Tracklist:
1. Sulphur & Starlight 06:43
2. Wolf Moon 04:57
3. God Particle 06:41
4. Summerland 08:25
5. A Glass Forest 04:45
6. The Wells Run Dry 04:53
7. Ode To The Future 04:17
8. Be Your Sins 05:53
9. Dust & Shadow 08:01
10. Khione 05:24
11. The Ascent To Summerland 06:21
******************************
Total playing time: 1:06:20

Preview 1

[more=Extended info]затащило не сразу. но затащило.[/more]

[more=Technical info]
Input File: 10. Khione.mp3
Channels : 2
Sample Rate : 44100
Precision : 16-bit
Duration : 00:05:24.54 = 14312214 samples = 24340.5 CDDA sectors
File Size : 13.0M
Bit Rate : 321k
Sample Encoding: MPEG audio (layer I, II or III)
Comments :
Title=Khione
Artist=Dool
Album=Summerland
Tracknumber=10/11
Year=2020
Genre=Rock

[/more]

Register
(27) acerbus, andgrek28, BlackTroll, bloodwind, Boozer, Brann, DMIYUR, Dragonballz, Fryz, Hellstriker, Henmik, infiltrator, judaz, Lukittaz, marilin, multizwilling, nemx, oldvarg, Olethros, sludge666, stub888, Tular, VALERY, Vitner, whitebros, xska, yuratroll,
Mar 10 2020, 16:51:02 Irae - The Old Ways [ep] (2019)
https://youtu.be/DtVRj6ux5wo

как обычно с этим проектом, очень трудно передать ощущения от прослушивания.
в основном потому, что их нет. ну вроде бы достаточно толковая сырая cpaнь.
ну толковая. ну сырая. ну cpaнь.
(2) garmonbozia, infiltrator,
Mar 9 2020, 18:25:41 Bad Acid - Revelations Of The Third Eye (2016)
великолепный альбом!
(1) Ingvar,
Mar 9 2020, 10:09:33 философия блэк метала
ЦИТАТА(Atila @ Mar 9 2020, 09:51:58) *
Мне вот что интересно. Черное искусство отрицает бытие, но бытие жизнь; противоположное бытию получается не бытие- смерть? Тогда получается ,что в этом хорошего? Зачем это воспевать?


ну некоторые считают, что жизнь это своего рода тюрьма, а жизнь в тюрьме хуже смерти.
(2) infiltrator, NOMIDIMON,
Mar 8 2020, 11:42:49 The House Of Capricorn - In The Devil's Days (2011)
Borderline1991, оперативно, дякую 9.gif
я даже кофе допить не успел)
(1) Borderline1991,
Mar 8 2020, 11:07:51 Black Metal в лицах
ЦИТАТА(garmonbozia @ Mar 8 2020, 11:35:28) *
кто это


вовремя сваливший из сборища говнарей
(2) garmonbozia, suseka,

15 Pages V   1 2 3 > » 
- Lo-Fi Version Support form
Copyrights and abuse reports form
Time is now: 14th August 2020 - 20:24:01