Welcome Guest ( Log In | Register )

> Fughu - Human (The Facts) (2013), Progressive Metal
post Aug 14 2013, 07:55:55
Post #1

Аннигилятор пивА
Group Icon
Group: V.I.P
Posts: 52,360
Releases: 16550
From: Koenigsberg - TILZIT
On Forums: 15 years 6 months
Thanks: 368614 time(s)
Russian Federation


(IMG:http://metalarea.org/images/audiocovers/2013_Aug/acov_tid206354_thumb.jpg)

*Artist: Fughu
*Album: Human (The Facts)
*Year: 2013
*Genre: Progressive Metal
*Country: Argentina (IMG:http://metalarea.org/forum/style_images/flags/Argentina.png)
*Format: mp3@CBR320kbps
*Size: 91MB

Tracklist:
01. Void 04:03
02. Quirk Of Fate 06:43
03. The Play 02:45
04. Climb 07:26
05. Vater 04:03
06. Winter 04:41
07. Till The Days I Die 01:58
08. The Facts 07:30
******************************
Total playing time: 39:09



Extended info
Alejandro Lopez - Drums
Ariel Bellizio - Guitars
Marcelo ( the salmon ) Malmierca - Keyboards
Juan Manuel Lopez - Bass Guitar
Santiago Burgi - Vocals, Guitars
Guests:
Damian Wilson - Vocals
Dario Schmunck - Vocals


Technical info
(IMG:http://metalarea.org/images/spectrogram/2013_Aug/1efcc408392f9ad5d117c5e63dc8053c.png)
Input File: Fughu-HumanTheFacts-01-Void.mp3
Channels : 2
Sample Rate : 44100
Precision : 16-bit
Duration : 00:04:03.49 = 10737777 samples = 18261.5 CDDA sectors
File Size : 9.96M
Bit Rate : 327k
Sample Encoding: MPEG audio (layer I, II or III)
Comments :
Title=Void
Artist=Fughu
Album=Human: The Facts
Tracknumber=1
Year=2013



Register


Go to the top of the page
  Insert nick Quick quote
+Quote Post
 
Start new topic
Replies (1 - 1)
post Sep 9 2013, 18:02:55
Post #2

Музыкальная помойка {mazafaker халявосук}
**************
Group: Металариец
Posts: 2,219
Releases: 97
On Forums: 15 years 11 months
Thanks: 1036 time(s)
Russian Federation


Здесь стоит начать с того, что альбом двухчастный и состоит из этого диска (он типа второй) и "Human (The tales)", который по номеру первый.
Музыка по большей части экспериментальна и коллектив я бы затеговал как avangarde heavy metal, и по большей части именно из-за этого диска, который откопал эстетик, ибо он интересней и необычней.
Музыка первого диска метальна и представляет собой достаточно типичный прог-метал. Где-то гитары чуть "жестяней" чем привычно, вокалист со странными интонациями, вероятно вызванными его национальностью и акцентом.
Музыка второго диска это компромисс между мягкой атмосферной клавишной электроникой пополам с очень мягким прог-металом. Значительно интересней и затягивающей, чем первый. Порой звучание почти идеально балансирует между клавишами и гитарами, как всегда хотелось, а вокалист почти не портит картины.
Для общего развития годится.


Thanks:
Go to the top of the page
  Insert nick Quick quote
+Quote Post

Reply to this topicStart new topic
1 User(s) are reading this topic (1 Guests and 0 Anonymous Users)
0 Members:

 



- Lo-Fi Version Support form
Copyrights and abuse reports form
Time is now: 9th December 2021 - 05:30:59