Welcome Guest ( Log In | Register )

> Nyogthaeblisz - Apocryphal Progenitors Of Mankind's Tribulation [best of/compilation] (2009), Black Metal
post Jul 13 2010, 07:06:33
Post #1

filed under desecration
Group Icon
Group: S-moderation team
Posts: 8,674
Releases: 1643
On Forums: 10 years 2 months
Thanks: 98969 time(s)
Unknown


(IMG:http://metalarea.org/images/audiocovers/2018_Oct/acov_tid311628_thumb.jpg)

*Artist: Nyogthaeblisz
*Album: Apocryphal Progenitors Of Mankind's Tribulation [best of/compilation]
*Year: 2009
*Genre: Black Metal
*Country: United States (IMG:http://metalarea.org/forum/style_images/flags/United%20States.png)
*Format: mp3@VBR202kbps
*Size: 58MB

Tracklist:
1. Intro 02:07
2. Onslaught Of Zygotical Conquest 02:33
3. Bioterroristic Holocaust 666 03:45
4. The Abysmal Wargoat 04:13
5. Theurgia Opetia Morsz 02:43
6. Satanic Warfare 02:27
7. Vengeance Through Thermonuclear Obliteration 03:23
8. Outro 02:17
9. Pestilence 01:17
10. War 01:33
11. Famine 01:10
12. Death 01:41
13. A Bewitched Outbreak Of Chemical Pestilence Quells The Subhuman Race 02:33
14. Humanicide 01:39
15. Bioterroristic Holocaust 666 03:08
16. Satanic Warfare 02:46
******************************
Total playing time: 39:15

(IMG:http://metalarea.org/images/myspace.png)

Extended info
12" LP re-release of the "Progenitors of Mankind's Annihilation" full length
that was released on SSP in 2004 in 100 copies on 12" LP and 100 copies on
cassette in 2004. Also has all 4 tracks from the "Apocryphal Precursor to The
Great Tribulation" one sided 7" that was released by SSP/Silcharde Records in
2008, both tracks from the "Declaration" comp CD released by SSP in 2006 and 2
bonus reh tracks from 2003. Limited to 333 copies, each copy sold with a razor
blade and pro-pressed CD.

Tracks 1-5: Dehumanization side
Tracks 6-12: Atomic Desolution side
Tracks 13-16: Bonus CD

Треки с 9 по 12-й объединены в один

Register

Register


This post has been edited by Borderline1991: Oct 11 2018, 18:05:04


Go to the top of the page
  Insert nick Quick quote
+Quote Post
 
Start new topic
Replies (1 - 10)
post Jul 13 2010, 09:43:09
Post #2

Till Lambs Become Lions
******
Group: Металариец
Posts: 598
Releases: 0
On Forums: 8 years 11 months
Thanks: 154 time(s)
Belarus


бэнд назваецца "неотъ*6лись" ?)
Go to the top of the page
  Insert nick Quick quote
+Quote Post
post Jul 13 2010, 10:34:23
Post #3

Два Литра
**
Group: Завсегдатай
Posts: 166
Releases: 10
From: Syktyvkar, ru
On Forums: 9 years 6 months
Thanks: 327 time(s)
Russian Federation


(IMG:style_emoticons/default/true_black.gif)
(IMG:http://userserve-ak.last.fm/serve/500/4155568/Nyogthaeblisz.jpg)


Thanks:
(1) sacrut,
Go to the top of the page
  Insert nick Quick quote
+Quote Post
post Jul 13 2010, 12:46:23
Post #4

Absorbence
***********
Group: Металариец
Posts: 1,608
Releases: 215
From: Vastland Abyss of Cthulhu
On Forums: 11 years 11 months
Thanks: 3596 time(s)
Canada


Абигор, а этот кошмар на rghost можно сделать, если не очень сложно и дорого?
Go to the top of the page
  Insert nick Quick quote
+Quote Post
post Jul 13 2010, 13:04:51
Post #5

filed under desecration
Group Icon
Group: S-moderation team
Posts: 8,674
Releases: 1643
On Forums: 10 years 2 months
Thanks: 98969 time(s)
Unknown


ЦИТАТА(sacrut @ Jul 13 2010, 15:46:23) *
этот кошмар на rghost можно сделать

В шапку добавлен линк на rghost.ru.
По сабжу - п*здатейший примитивный, нойзящий роу блэк-метал террористической направленности. (IMG:style_emoticons/default/true_black.gif) Дичайше рекомендуется к прослушиванию. (IMG:style_emoticons/default/dwarf-1.gif)


Thanks:
Go to the top of the page
  Insert nick Quick quote
+Quote Post
post Jul 13 2010, 15:14:44
Post #6

Absorbence
***********
Group: Металариец
Posts: 1,608
Releases: 215
From: Vastland Abyss of Cthulhu
On Forums: 11 years 11 months
Thanks: 3596 time(s)
Canada


Вот я понимаю, black metal, (IMG:style_emoticons/default/true_black.gif) а народ там что-то в топике о Mortifera обсуждает...


Go to the top of the page
  Insert nick Quick quote
+Quote Post
post Feb 20 2011, 02:34:45
Post #7

Just Fuck Off
**************
Group: Металариец
Posts: 2,055
Releases: 759
On Forums: 10 years 2 months
Thanks: 7437 time(s)
El Salvador


AAARRRGGHHHH!!!
Go to the top of the page
  Insert nick Quick quote
+Quote Post
post Jan 5 2017, 05:51:54
Post #8

Group: Подсевший
Posts: 28
Releases: 0
On Forums: 5 years 3 months
Thanks: 6 time(s)
India


re-up at 320 anyone?
Go to the top of the page
  Insert nick Quick quote
+Quote Post
post Jan 5 2017, 08:49:36
Post #9

A.M.S.G.
**************
Group: Металариец
Posts: 2,369
Releases: 52
From: Припять
On Forums: 10 years 6 months
Thanks: 1530 time(s)
Russian Federation


Register


Thanks:
Go to the top of the page
  Insert nick Quick quote
+Quote Post
post Mar 6 2017, 21:00:25
Post #10

Маньяк
**********
Group: Металариец
Posts: 1,045
Releases: 680
On Forums: 10 years 11 months
Thanks: 6925 time(s)
Ukraine


Register


Thanks:
(1) masdad,
Go to the top of the page
  Insert nick Quick quote
+Quote Post
post Oct 11 2018, 18:06:01
Post #11

...
Group Icon
Group: S-moderation team
Posts: 7,268
Releases: 1288
On Forums: 7 years 7 months
Thanks: 35470 time(s)
Croatia


Added links by LazarShadow

Technical info
(IMG:http://metalarea.org/images/spectrogram/2018_Oct/00a300bda0c9edc5615af016f7b59a2e.png)
Input File: 06 - satanic warfare.mp3
Channels : 2
Sample Rate : 44100
Precision : 16-bit
Duration : 00:02:27.41 = 6500869 samples = 11055.9 CDDA sectors
File Size : 5.90M
Bit Rate : 320k
Sample Encoding: MPEG audio (layer I, II or III)
Comments :
Title=Satanic Warfare
Artist=Nyogthaeblisz
Album=Apocryphal Progenitors Of Mankind's Tribulation
Tracknumber=6
Year=2009



Go to the top of the page
  Insert nick Quick quote
+Quote Post

Reply to this topicStart new topic
2 User(s) are reading this topic (2 Guests and 0 Anonymous Users)
0 Members:

 



- Lo-Fi Version Support form
Copyrights and abuse reports form
Time is now: 23rd October 2018 - 17:16:21