Welcome Guest ( Log In | Register )

> 

Здесь релизы с живыми прямыми ссылками на lossless

> Vomitous Discharge - Festering Carcass Covered With Rot (2007), Goregrind
post Feb 22 2011, 15:26:12
Post #1

Serial Uploader
Group Icon
Group: V.I.P
Posts: 38,748
Releases: 36887
From: Lithuania
On Forums: 14 years 2 months
Thanks: 458418 time(s)
Lithuania


(IMG:http://metalarea.org/images/audiocovers/2011_Feb/acov_tid139305_thumb.jpg)

*Artist: Vomitous Discharge
*Album: Festering Carcass Covered With Rot
*Year: 2007
*Genre: Goregrind
*Country: Germany (IMG:http://metalarea.org/forum/style_images/flags/Germany.png)
*Format: flac
*Size: 129MB

Tracklist:
01. Slashing Temptations To A Mass Of Slithering Offal 02:39
02. Abolishment Of Disgusting Homosexual Sodomy 02:11
03. Sickening Bowel Regurgitation Of The Hellspawn 00:20
04. Purulent Faeces In Your Brain 02:15
05. Seductions Beheaded With A Hacksaw 02:12
06. Severe Head Trauma Of Satan 02:51
07. Divine Excretion Of Malignant Proliferating Tumour In Your Soul 01:43
08. Spewing A Load Of Festering Bile 00:06
09. Blasphemer Decomposing In The Bowels Of Hell And Eternally Waiting For Defecation 02:20
10. Rapist Gets What He Deserves 00:36
11. Putrefaction Of Sinful Pleasures 02:35
12. Coprophiliac Dreams Flushed Down The Toilet 01:47
13. The Vomitous Discharge Pt. I 00:06
14. VomitGore ChristCore II 03:23
******************************
Total playing time: 25:04

(IMG:http://metalarea.org/images/myspace.png)
(IMG:http://metalarea.org/images/youtube.png)

Extended info
(IMG:http://metalarea.org/images/spectrogram/2015_Feb/03cf6173c17152b6cca9816447169589.png)
Input File: 02_vomitous_discharge-abolishment_of_disgusting_homosexual_sodomy-cruelty.flac
Channels : 2
Sample Rate : 44100
Precision : 16-bit
Duration : 00:02:11.72 = 5808852 samples = 9879 CDDA sectors
File Size : 11.6M
Bit Rate : 704k
Sample Encoding: 16-bit FLAC
Comments :
TITLE=Abolishment Of Disgusting Homosexual Sodomy
ARTIST=Vomitous Discharge
ALBUM=Festering Carcass Covered With Rot
TRACKNUMBER=2
DATE=2007
GENRE=Death Metal
COMMENT=CRUELTY
TOTALTRACKS=14
DISCNUMBER=1
TOTALDISCS=1


Register


Go to the top of the page
  Insert nick Quick quote
+Quote Post
 
Start new topic
Replies (1 - 3)
post Feb 22 2011, 16:09:48
Post #2

Сволочь обыкновенная
**************
Group: Металариец
Posts: 2,986
Releases: 181
From: Брест
On Forums: 14 years 3 months
Thanks: 4723 time(s)
Belarus


Помню, помню такая же обложечка была у... из головы вылетео, блин. А так спасибо!
Go to the top of the page
  Insert nick Quick quote
+Quote Post
post Feb 22 2011, 17:17:19
Post #3

Serial Uploader
Group Icon
Group: V.I.P
Posts: 38,748
Releases: 36887
From: Lithuania
On Forums: 14 years 2 months
Thanks: 458418 time(s)
Lithuania


QUOTE(spazm @ Feb 22 2011, 19:09:48) *
Помню, помню такая же обложечка была у... из головы вылетео, блин. А так спасибо!


Да, один из альбомов Splattered Entrails- 2006`Carnivorous Parasitic Infection
(IMG:style_emoticons/default/smile1.gif)


Thanks:
Go to the top of the page
  Insert nick Quick quote
+Quote Post
post May 23 2013, 18:10:27
Post #4

Мегаманьяк
***********
Group: Металариец
Posts: 1,547
Releases: 0
From: Санкт-Петербург
On Forums: 11 years 6 months
Thanks: 31 time(s)
Russian Federation


перезалейте плиз!)


Thanks:
Go to the top of the page
  Insert nick Quick quote
+Quote Post

Reply to this topicStart new topic
1 User(s) are reading this topic (1 Guests and 0 Anonymous Users)
0 Members:

 



- Lo-Fi Version Support form
Copyrights and abuse reports form
Time is now: 11th August 2022 - 19:12:04