Welcome Guest ( Log In | Register )

> LawShed - Don't Urge Disorder/Dumb Millions [ep] (1990), Thrash Metal
post Aug 25 2011, 21:08:42
Post #1

Подвал
**************
Group: Металариец
Posts: 15,783
Releases: 9023
From: Far East (Khabarovsk)
On Forums: 12 years 1 month
Thanks: 99782 time(s)
Russian Federation


(IMG:https://metalarea.org/images/audiocovers/2021_Jan/acov_tid346008_thumb.jpg)

*Artist: LawShed
*Album: Don't Urge Disorder/Dumb Millions [ep]
*Year: 1990
*Genre: Thrash Metal
*Country: Japan (IMG:http://metalarea.org/forum/style_images/flags/Japan.png)
*Format: mp3@CBR128kbps (IMG:http://metalarea.org/images/bit_low.gif)
*Size: 11MB

Tracklist:
1. Don't Urge Disorder 07:20
2. Dumb Millions 05:46
******************************
Total playing time: 13:06



Register

Register


Thanks:
Go to the top of the page
  Insert nick Quick quote
+Quote Post
 
Start new topic
Replies (1 - 3)
post Nov 20 2016, 13:38:25
Post #2

Три Литра
***
Group: Завсегдатай
Posts: 255
Releases: 0
From: VANCOUVER
On Forums: 10 years 9 months
Thanks: 27 time(s)
Canada


hey Proteus, Need To Reupload please ¡¡¡¡
Go to the top of the page
  Insert nick Quick quote
+Quote Post
post Nov 21 2016, 00:34:15
Post #3

Четыре Литра
****
Group: Металариец
Posts: 345
Releases: 3
From: Posadas Misiones
On Forums: 7 years 6 months
Thanks: 421 time(s)
Argentina


FROM THE WEB
http://www.4shared.com/rar/TSllV3Cuce/Laws...urge_Disor.html
Go to the top of the page
  Insert nick Quick quote
+Quote Post
post Jan 13 2021, 02:24:34
Post #4

\m/
Group Icon
Group: S-moderation team
Posts: 7,891
Releases: 19
From: Петропавловск-Камчатский
On Forums: 11 years 8 months
Thanks: 7887 time(s)
Russian Federation


Added links by slack
Technical info
(IMG:https://metalarea.org/images/spectrogram/2021_Jan/04071c1111d617638e17598161152b6a.png)
Input File: 01 Don't Urge Disorder.mp3
Channels : 2
Sample Rate : 44100
Precision : 16-bit
Duration : 00:06:35.34 = 17434626 samples = 29650.7 CDDA sectors
File Size : 15.9M
Bit Rate : 321k
Sample Encoding: MPEG audio (layer I, II or III)
Comments :
Title=Don't Urge Disorder
Artist=LawShed
Album=1990 Don't Urge Disorder/Dumb Millions
Tracknumber=01/02
Year=1990
Genre=Thrash Metal
Go to the top of the page
  Insert nick Quick quote
+Quote Post

Reply to this topicStart new topic
1 User(s) are reading this topic (1 Guests and 0 Anonymous Users)
0 Members:

 



- Lo-Fi Version Support form
Copyrights and abuse reports form
Time is now: 2nd March 2021 - 23:29:07