Welcome Guest ( Log In | Register )

> Holocausto - Tozago As Deismno (1993), Thrash Metal/Crossover/Experimental
post Mar 12 2012, 03:02:11
Post #1

Serial Uploader
Group Icon
Group: V.I.P
Posts: 32,736
Releases: 31034
From: Lithuania
On Forums: 10 years 2 weeks
Thanks: 355778 time(s)
Lithuania


(IMG:http://metalarea.org/images/audiocovers/2012_Mar/acov_tid168413_thumb.jpg)

*Artist: Holocausto
*Album: Tozago As Deismno
*Year: 1993
*Genre: Thrash Metal/Crossover/Experimental
*Country: Brazil (IMG:http://metalarea.org/forum/style_images/flags/Brazil.png)
*Format: mp3@CBR320kbps
*Size: 140MB

Tracklist:
01. Arisnafr O Chupão Rrerezamn 07:30
02. Epamenorr 02:48
03. Miss Ant 03:50
04. Isabelle & Danielle 04:02
05. Aderöst 01:24
06. Erop Vdoo 03:20
07. Oprim Chamber Of Spheres 01:28
08. So... 02:52
09. 64 Exits O Sapato Farol 01:53
10. Tinocunaci 03:23
11. De Illusionist Presidipamn 04:53
12. Critica 00:15
13. Collisions 08:40
14. The Yellow Shadows Land LLL 07:26
15. How It Is In The Toys Tower 07:45
******************************
Total playing time: 1:01:29

(IMG:http://metalarea.org/images/myspace.png)

Extended info
(IMG:http://metalarea.org/images/spectrogram/2015_Jun/a04bc762b713bb44100e9ccdf7077632.png)
Input File: 02 Epamenorr.mp3
Channels : 2
Sample Rate : 48000
Precision : 16-bit
Duration : 00:02:48.99 = 8111376 samples ~ 12674 CDDA sectors
File Size : 6.79M
Bit Rate : 321k
Sample Encoding: MPEG audio (layer I, II or III)
Comments :
Title=Epamenorr
Artist=Holocausto
Album=Tozago as Deismno
Tracknumber=02
Year=1993
Genre=Thrash Metal


Register


Go to the top of the page
  Insert nick Quick quote
+Quote Post
 
Start new topic
Replies (1 - 5)
post Oct 19 2013, 17:58:19
Post #2

Три Литра
***
Group: Завсегдатай
Posts: 287
Releases: 0
On Forums: 5 years 1 month
Thanks: 8 time(s)
Ukraine


Перезалейте пожалуйста
Go to the top of the page
  Insert nick Quick quote
+Quote Post
post May 29 2015, 14:01:58
Post #3

Going home. Flying high.
**************
Group: Металариец
Posts: 12,200
Releases: 0
From: The Land of Shadows
On Forums: 11 years 10 months
Thanks: 16797 time(s)
Russian Federation


from the web
Register


Thanks:
Go to the top of the page
  Insert nick Quick quote
+Quote Post
post Dec 6 2017, 19:06:11
Post #4

Prisoner Of Our Time
**************
Group: Металариец
Posts: 3,452
Releases: 39
From: Луганск, 13 регион, экс-"404"
On Forums: 12 years 7 months
Thanks: 961 time(s)
Unknown


please re-up 320 kBit
Go to the top of the page
  Insert nick Quick quote
+Quote Post
post Dec 6 2017, 22:54:42
Post #5

Join my religion, or die
**************
Group: Металариец
Posts: 9,484
Releases: 1138
From: Питера
On Forums: 8 years 8 months
Thanks: 15446 time(s)
Russian Federation


320 - 141 метр

Register


Go to the top of the page
  Insert nick Quick quote
+Quote Post
post Dec 7 2017, 13:12:26
Post #6

Prisoner Of Our Time
**************
Group: Металариец
Posts: 3,452
Releases: 39
From: Луганск, 13 регион, экс-"404"
On Forums: 12 years 7 months
Thanks: 961 time(s)
Unknown


спасибо, скачал
какой-то сплошной авангард...
Go to the top of the page
  Insert nick Quick quote
+Quote Post

Reply to this topicStart new topic
1 User(s) are reading this topic (1 Guests and 0 Anonymous Users)
0 Members:

 



- Lo-Fi Version Support form
Copyrights and abuse reports form
Time is now: 24th June 2018 - 04:17:47