Welcome Guest ( Log In | Register )

> Mirrormaze - Walkabout (2012), Progressive Metal
post May 29 2012, 02:17:42
Post #1

Serial Uploader
Group Icon
Group: V.I.P
Posts: 37,112
Releases: 35296
From: Lithuania
On Forums: 11 years 9 months
Thanks: 418068 time(s)
Lithuania


(IMG:http://metalarea.org/images/audiocovers/2012_May/acov_tid173995_thumb.jpg)

*Artist: Mirrormaze
*Album: Walkabout
*Year: 2012
*Genre: Progressive Metal
*Country: Italy (IMG:http://metalarea.org/forum/style_images/flags/Italy.png)
*Format: mp3@CBR320kbps
*Size: 132MB

Tracklist:
01. Prisoner 05:52
02. Earn Your Answers 05:43
03. Vicious Circle 06:19
04. Lost In A Belief 09:02
05. Joke 05:37
06. Deeper Signs 07:02
07. Walkabout 08:02
08. Missing 03:42
09. Broken Soul 09:06
******************************
Total playing time: 1:00:25

(IMG:http://metalarea.org/images/myspace.png)

Extended info


(IMG:http://metalarea.org/images/spectrogram/2012_May/b8668ddce524184b20135d17af31c0e8.png)
Input File: 01. Prisoner.mp3
Channels : 2
Sample Rate : 44100
Precision : 16-bit
Duration : 00:05:52.77 = 15557025 samples = 26457.5 CDDA sectors
File Size : 14.1M
Bit Rate : 320k
Sample Encoding: MPEG audio (layer I, II or III)
Comments :
Title=Prisoner
Artist=Mirrormaze
Album=Walkabout
Tracknumber=1/10
Year=2012
Genre=metal
Discnumber=1/1



Register


Go to the top of the page
  Insert nick Quick quote
+Quote Post
 
Start new topic
Replies (1 - 5)
post May 29 2012, 08:22:54
Post #2

тебе 29, а ты все реверсами балуешься
***********
Group: Металариец
Posts: 1,903
Releases: 4
On Forums: 11 years 8 months
Thanks: 627 time(s)
Russian Federation


Итааалия, гумна не делают макароннички! всем любителям Time Machine, Night Silence советую

+Ray Alder (для меня это в первую очередь Redemption) в гостях
Go to the top of the page
  Insert nick Quick quote
+Quote Post
post May 29 2012, 09:25:08
Post #3

Девять Литров
*********
Group: Металариец
Posts: 931
Releases: 348
From: Украина
On Forums: 12 years 2 months
Thanks: 2570 time(s)
Ukraine


с time machine сходства не нашел(имхо),т.к они более спокойные и мелодичные и с менее эмоциональным и сильным вокалом, с night silence может по мощной музыки есть аналогия и где-то по манере пения,но Mirrormaze менее сладкий,альбом крепкий ,слушать стоит.
Go to the top of the page
  Insert nick Quick quote
+Quote Post
post May 29 2012, 11:37:28
Post #4

тебе 29, а ты все реверсами балуешься
***********
Group: Металариец
Posts: 1,903
Releases: 4
On Forums: 11 years 8 months
Thanks: 627 time(s)
Russian Federation


ЦИТАТА(trankill @ May 29 2012, 11:25:08) *
с time machine сходства не нашел(имхо),т.к они более спокойные и мелодичные и с менее эмоциональным и сильным вокалом, с night silence может по мощной музыки есть аналогия и где-то по манере пения,но Mirrormaze менее сладкий,альбом крепкий ,слушать стоит.


ну я соглашусь, что таймы спокойнее. просто мне кажется, что общее направление у итальянской сцены одно. и весьма хорошее! (IMG:style_emoticons/default/20.gif)
Go to the top of the page
  Insert nick Quick quote
+Quote Post
post May 29 2012, 14:20:50
Post #5

Девять Литров
*********
Group: Металариец
Posts: 931
Releases: 348
From: Украина
On Forums: 12 years 2 months
Thanks: 2570 time(s)
Ukraine


тут и я соглашусь))у итальянского прогрессива есть сильные группы и свое лицо ,это уж точно ,к выше перечисленным можно добавлять mind key ,silver lake,adramelch,empty tremor,fear of fours,fury n grace ну и так далее


Thanks:
(1) Dismayer,
Go to the top of the page
  Insert nick Quick quote
+Quote Post
post Jul 12 2012, 18:27:00
Post #6

Девять Литров
*********
Group: Металариец
Posts: 931
Releases: 348
From: Украина
On Forums: 12 years 2 months
Thanks: 2570 time(s)
Ukraine


ЦИТАТА(Foneg @ May 29 2012, 11:22:54) *
+Ray Alder (для меня это в первую очередь Redemption) в гостях


купил диск группы и хочу отметить,что помимо того,что альбом очень не плохой,приятно удивило звучание материала,профессионально записан и добротно сведен альбом,не зря над этим потрудился Nick Van Dyk(Redemption) .


Thanks:
(1) Foneg,
Go to the top of the page
  Insert nick Quick quote
+Quote Post

Reply to this topicStart new topic
1 User(s) are reading this topic (1 Guests and 0 Anonymous Users)
0 Members:

 



- Lo-Fi Version Support form
Copyrights and abuse reports form
Time is now: 1st April 2020 - 10:04:13