Welcome Guest ( Log In | Register )

> Annex Theory - Process Existence [ep] (2012), Technical/Extreme Modern Progressive Metal
post Jun 5 2012, 05:04:38
Post #1

Аннигилятор пивА
Group Icon
Group: V.I.P
Posts: 52,360
Releases: 16550
From: Koenigsberg - TILZIT
On Forums: 14 years 10 months
Thanks: 367416 time(s)
Russian Federation


(IMG:http://metalarea.org/images/audiocovers/2012_Jun/acov_tid174500_thumb.jpg)

*Artist: Annex Theory
*Album: Process Existence [ep]
*Year: 2012
*Genre: Technical/Extreme Modern Progressive Metal
*Country: Canada (IMG:http://metalarea.org/forum/style_images/flags/Canada.png)
*Format: mp3@CBR320kbps
*Size: 51MB

Tracklist:
1.Withered 05:12
2.Process Existence 05:45
3.A Voice for the Voiceless 05:52
4.Subdivisions (Rush Cover) 05:30
******************************
Total playing time: 22:19

(IMG:http://metalarea.org/images/myspace.png)

Extended info
Качал из-за кавера и вокалиста, в общем понравился этот самый кавер.

Formed in 2008 by former QUO VADIS vocalist Trevor Birnie and young guitar virtuoso Sam Jacobs, ANNEX THEORY set out to create a truly unique sound, fusing an original multi-vocal style that can only be experienced to believe with crushing groove, silky smooth technicality, monstrous hooks, and dense atmosphere.

Influence: Periphery, Sikth, Textures, Neuraxis, The Dillinger Escape Plan, Architects...

Trevor Birnie - Vocals (Quo Vadis, Damascus)
Sam Jacobs - Guitars/Vocals
Matthew Rutowicz - Keys
Wade Forshaw - Guitars
Adam Jefkins - Drums
Jordan Fehr - Bass

(IMG:http://metalarea.org/images/spectrogram/2012_Jun/eb06e37b004934f515505db4d8c65ec4.png)
Input File: 02. Process Existence.mp3
Channels : 2
Sample Rate : 44100
Precision : 16-bit
Duration : 00:05:45.71 = 15245943 samples = 25928.5 CDDA sectors
File Size : 13.8M
Bit Rate : 320k
Sample Encoding: MPEG audio (layer I, II or III)
Comments :
Title=02 Process Existence
Artist=Annex Theory
Album=Process Existence EP
Tracknumber=02
Year=2012
Genre=Progressive Metal



Register


Go to the top of the page
  Insert nick Quick quote
+Quote Post
 
Start new topic
Replies (1 - 7)
post Jun 5 2012, 06:50:59
Post #2

Маньяк
**********
Group: Металариец
Posts: 1,015
Releases: 3
From: Алчевск
On Forums: 11 years 3 months
Thanks: 255 time(s)
Ukraine


QUOTE(aesteticvice @ 5th June 2012 - 07:04:38) *
Formed in 2008 by former QUO VADIS vocalist Trevor Birnie

не так уж и долго он пробыл в КВ, даже ничем не отметился.
а вот Дамаскус я помню, раньше даже нравились, и название Annex Theory тоже запомнилось, теперь послушаю.
Go to the top of the page
  Insert nick Quick quote
+Quote Post
post Jun 5 2012, 07:01:05
Post #3

Маньяк
**********
Group: Металариец
Posts: 1,015
Releases: 3
From: Алчевск
On Forums: 11 years 3 months
Thanks: 255 time(s)
Ukraine


modern fapcore (IMG:style_emoticons/default/22.gif)


Thanks:
Go to the top of the page
  Insert nick Quick quote
+Quote Post
post Jun 5 2012, 14:45:28
Post #4

Литр
*
Group: Подсевший
Posts: 67
Releases: 0
On Forums: 11 years 4 months
Thanks: 8 time(s)
Sweden


Deathcore
Go to the top of the page
  Insert nick Quick quote
+Quote Post
post Jun 5 2012, 15:06:56
Post #5

Don't be negative.
**************
Group: Металариец
Posts: 2,887
Releases: 757
From: Earthmother
On Forums: 10 years 6 months
Thanks: 10238 time(s)
Ukraine


Progressive Metalcore/Djent, к чему все эти экстрим модерн прог непонятно...


Thanks:
Go to the top of the page
  Insert nick Quick quote
+Quote Post
post Jun 5 2012, 22:25:47
Post #6

Шесть Литров
******
Group: Металариец
Posts: 579
Releases: 5
On Forums: 11 years 3 months
Thanks: 367 time(s)
Russian Federation


это же aesteticvice (IMG:style_emoticons/default/21.gif)


Thanks:
(1) iriktaru,
Go to the top of the page
  Insert nick Quick quote
+Quote Post
post Jun 6 2012, 13:55:19
Post #7
BAN
RO till
--



aesteticvice Скатился в модэрн (IMG:style_emoticons/default/22.gif)
Go to the top of the page
  Insert nick Quick quote
+Quote Post
post Oct 8 2014, 17:58:32
Post #8

Правь статус, ####!111
**************
Group: Металариец
Posts: 9,210
Releases: 0
From: Москва
On Forums: 11 years 8 months
Thanks: 16682 time(s)
Russian Federation


Register
320
Go to the top of the page
  Insert nick Quick quote
+Quote Post

Reply to this topicStart new topic
2 User(s) are reading this topic (2 Guests and 0 Anonymous Users)
0 Members:

 



- Lo-Fi Version Support form
Copyrights and abuse reports form
Time is now: 18th April 2021 - 11:53:49