Welcome Guest ( Log In | Register )

> И неформату есть предел.

Рэп/хип-хоп/шансон/поп удаляются. Для них есть свои порталы.

> Domo - Domo (2011), Instrumental Psychedelic/Space/Stoner/Post-Rock
post Jun 15 2012, 21:28:38
Post #1

******
Group: Металариец
Posts: 540
Releases: 103
From: Киев
On Forums: 8 years 1 month
Thanks: 2215 time(s)
Ukraine


(IMG:http://metalarea.org/images/audiocovers/2012_Jun/acov_tid175341_thumb.jpg)

*Artist: Domo
*Album: Domo
*Year: 2011
*Genre: Instrumental Psychedelic/Space/Stoner/Post-Rock
*Country: Spain (IMG:http://metalarea.org/forum/style_images/flags/Spain.png)
*Format: mp3@CBR320kbps
*Size: 140MB

Tracklist:
1. Nadi 06:30
2. Prana 11:57
3. Asura 08:52
4. Pretas 03:12
5. Yamantaka 08:27
6. Eta Carinae 01:59
7. Samsara 24:03
******************************
Total playing time: 1:05:00

(IMG:http://metalarea.org/images/myspace.png)


Extended info


(IMG:http://metalarea.org/images/spectrogram/2012_Jun/c158f96ccf995e68263447f8d8df3e8f.png)
Input File: 06- Eta Carinae.mp3
Channels : 2
Sample Rate : 44100
Precision : 16-bit
Duration : 00:01:59.55 = 5272155 samples = 8966.25 CDDA sectors
File Size : 4.91M
Bit Rate : 329k
Sample Encoding: MPEG audio (layer I, II or III)
Comments :
Title=06- Eta Carinae
Artist=Domo
Album=Domo
Tracknumber=6
Year=2011
Genre=Other



Register


Go to the top of the page
  Insert nick Quick quote
+Quote Post
 
Start new topic
Replies (1 - 2)
post Jun 22 2012, 21:04:28
Post #2

Два Литра
**
Group: Завсегдатай
Posts: 128
Releases: 0
On Forums: 12 years 3 months
Thanks: 29 time(s)
Poland


этих испанцев в открытый космос! (IMG:style_emoticons/default/bye.gif)


Thanks:
(1) Leshiy666,
Go to the top of the page
  Insert nick Quick quote
+Quote Post
post Jan 8 2020, 02:23:43
Post #3

Шесть Литров
******
Group: Металариец
Posts: 567
Releases: 1
From: АР Крым, Симферополь
On Forums: 12 years 1 month
Thanks: 256 time(s)
Russian Federation


Альбом вышка!!
P.S. Не так давно, перед НГ, у этих космо-психоделик испанцев вышел второй полноформат, он так же весьма хорош, рекомендую к ознакомлению!! (IMG:style_emoticons/default/m0114.gif) (IMG:style_emoticons/default/m1234.gif) (IMG:style_emoticons/default/20.gif)





Go to the top of the page
  Insert nick Quick quote
+Quote Post

Reply to this topicStart new topic
1 User(s) are reading this topic (1 Guests and 0 Anonymous Users)
0 Members:

 



- Lo-Fi Version Support form
Copyrights and abuse reports form
Time is now: 28th May 2020 - 05:14:03