Welcome Guest ( Log In | Register )

> 

Здесь релизы с живыми прямыми ссылками на lossless

> Depressive Age - Innocent In Detention [ep] (1992), Progressive Thrash Metal
post Jun 20 2012, 11:55:02
Post #1

Аннигилятор пивА
Group Icon
Group: V.I.P
Posts: 52,360
Releases: 16555
From: Koenigsberg - TILZIT
On Forums: 13 years 6 months
Thanks: 363280 time(s)
Russian Federation


(IMG:http://metalarea.org/images/audiocovers/2012_Jun/acov_tid175716_thumb.jpg)

*Artist: Depressive Age
*Album: Innocent In Detention [ep]
*Year: 1992
*Genre: Progressive Thrash Metal
*Country: Germany (IMG:http://metalarea.org/forum/style_images/flags/Germany.png)
*Format: mp3@CBR320kbps
*Size: 53MB

Tracklist:
1. Innocent In Detention 06:28
2. Never Be Blind 03:45
3. Circles Colour Red 06:09
******************************
Total playing time: 16:22

(IMG:http://metalarea.org/images/myspace.png)

Extended info
чисто для диско +SCANS
Promo Maxi-Single

Jan Lubitzki - Vocals
Jochen Klemp - Guitars
Ingo Grigoleit - Guitars
Norbert Drescher - Drums
Tim Schallenberg - Bass

(IMG:http://metalarea.org/images/spectrogram/2012_Jun/19fbda8c01677e5be54a3507083522e8.png)
Input File: 02. Never Be Blind.mp3
Channels : 2
Sample Rate : 44100
Precision : 16-bit
Duration : 00:03:45.20 = 9931276 samples = 16889.9 CDDA sectors
File Size : 9.01M
Bit Rate : 320k
Sample Encoding: MPEG audio (layer I, II or III)
Comments :
Title=Never Be Blind
Artist=Depressive Age
Album=Innocent In Detention (GUN, 665 226)
Tracknumber=02
Year=1992
Genre=Technical Thrash Metal



Register


Go to the top of the page
  Insert nick Quick quote
+Quote Post
 
Start new topic
Replies (1 - 3)
post Jun 22 2012, 21:51:30
Post #2

Четыре Литра
****
Group: Металариец
Posts: 324
Releases: 10
From: Тула, Россия
On Forums: 11 years 7 months
Thanks: 196 time(s)
Russian Federation


Внезапно! Есть ли ещё у тебя их синглы или демо?
Go to the top of the page
  Insert nick Quick quote
+Quote Post
post Dec 3 2016, 23:08:30
Post #3

Правь статус, ####!111
**************
Group: Металариец
Posts: 2,223
Releases: 0
On Forums: 4 years 7 months
Thanks: 2522 time(s)
Russian Federation


Перезалейте кто-нибудь
Go to the top of the page
  Insert nick Quick quote
+Quote Post
post Nov 2 2019, 21:34:34
Post #4

Литр
*
Group: Подсевший
Posts: 72
Releases: 2
From: Bury St Edmunds
On Forums: 11 years 6 months
Thanks: 89 time(s)
United Kingdom


Register


Go to the top of the page
  Insert nick Quick quote
+Quote Post

Reply to this topicStart new topic
1 User(s) are reading this topic (1 Guests and 0 Anonymous Users)
0 Members:

 



- Lo-Fi Version Support form
Copyrights and abuse reports form
Time is now: 11th December 2019 - 09:09:05