Welcome Guest ( Log In | Register )

> Coffins & Macabra - In Quarantine With Death [split] (2012), Doom/Death Metal | Death Metal
post Jun 22 2012, 16:25:38
Post #1

Маньяк
**********
Group: Металариец
Posts: 1,488
Releases: 54
On Forums: 7 years 8 months
Thanks: 1947 time(s)
Russian Federation


(IMG:http://metalarea.org/images/audiocovers/2012_Jun/acov_tid175840_thumb.jpg)

*Artist: Coffins & Macabra
*Album: In Quarantine With Death [split]
*Year: 2012
*Genre: Doom/Death Metal | Death Metal
*Country: Japan (IMG:http://metalarea.org/forum/style_images/flags/Japan.png) | United States (IMG:http://metalarea.org/forum/style_images/flags/United%20States.png)
*Format: mp3@CBR320kbps
*Size: 32MB

Tracklist:
Coffins:
1. Grotesque Messiah (Extended Version) 03:34
Macabra:
2. Breath Thief (The Drowning of the Last Sussured Whispers) 04:47
******************************
Total playing time: 8:21

(IMG:http://metalarea.org/images/myspace.png)


Extended info


(IMG:http://metalarea.org/images/spectrogram/2012_Jun/5c66b68fa2e25ee6f487aac707904baa.png)
Input File: 01 Coffins – Grotesque Messiah (extended).mp3
Channels : 2
Sample Rate : 44100
Precision : 16-bit
Duration : 00:03:44.39 = 9895643 samples = 16829.3 CDDA sectors
File Size : 8.98M
Bit Rate : 320k
Sample Encoding: MPEG audio (layer I, II or III)
Comments :
Title=Grotesque Messiah
Artist=Coffins
Genre=Metal



Register


Go to the top of the page
  Insert nick Quick quote
+Quote Post
 
Start new topic
Replies (1 - 7)
post Jun 22 2012, 16:58:32
Post #2

Два Литра
**
Group: Завсегдатай
Posts: 137
Releases: 0
On Forums: 7 years 2 months
Thanks: 10 time(s)
Unknown


Another link please. Metalarea have virus problem. Thanks
Go to the top of the page
  Insert nick Quick quote
+Quote Post
post Jun 22 2012, 17:05:38
Post #3

добрый доктор
**************
Group: Металариец
Posts: 3,184
Releases: 1083
From: коста-сити
On Forums: 9 years 9 months
Thanks: 19650 time(s)
Russian Federation


ЦИТАТА(Stigmatised @ Jun 22 2012, 18:58:32) *
Another link please. Metalarea have virus problem. Thanks


Register


Go to the top of the page
  Insert nick Quick quote
+Quote Post
post Jun 25 2012, 10:26:39
Post #4

Правь статус, ####!111
**************
Group: Металариец
Posts: 2,137
Releases: 258
From: 93 banlieue nord hardcore si si
On Forums: 10 years 6 months
Thanks: 3576 time(s)
France


thanks for uploading/reuploading it guys (IMG:style_emoticons/default/smile1.gif)
I love Coffins (IMG:style_emoticons/default/smile1.gif)
*Format: mp3@CBR320kbps
*Size: 32MB
Register
Go to the top of the page
  Insert nick Quick quote
+Quote Post
post Jun 25 2012, 10:28:19
Post #5

####!111
**************
Group: Металариец
Posts: 3,671
Releases: 125
From: The Mountain Of DOOM
On Forums: 11 years 1 month
Thanks: 5136 time(s)
Russian Federation


ЦИТАТА(Stigmatised @ 22nd June 2012 - 19:58:32) *
Metalarea have virus problem

No, it's you having fake antivirus problem
Go to the top of the page
  Insert nick Quick quote
+Quote Post
post Jun 25 2012, 16:58:34
Post #6

Слэм-неволяшка
***********
Group: Металариец
Posts: 1,661
Releases: 144
From: Севастополь
On Forums: 12 years 7 months
Thanks: 1860 time(s)
Russian Federation


ЦИТАТА(Stigmatised @ Jun 22 2012, 18:58:32) *
Metalarea have virus problem. Thanks

Таки да, какая-то х-ня началась (IMG:style_emoticons/default/fear.gif)
Go to the top of the page
  Insert nick Quick quote
+Quote Post
post Jan 13 2018, 08:13:44
Post #7

Литр
*
Group: Подсевший
Posts: 94
Releases: 0
On Forums: 9 years 10 months
Thanks: 3 time(s)
Germany


reup please
Go to the top of the page
  Insert nick Quick quote
+Quote Post
post Jan 13 2018, 08:21:38
Post #8

Going home. Flying high.
**************
Group: Металариец
Posts: 12,413
Releases: 0
From: The Land of Shadows
On Forums: 12 years 3 months
Thanks: 18065 time(s)
Russian Federation


from web
Register


Thanks:
(1) 555,
Go to the top of the page
  Insert nick Quick quote
+Quote Post

Reply to this topicStart new topic
1 User(s) are reading this topic (1 Guests and 0 Anonymous Users)
0 Members:

 



- Lo-Fi Version Support form
Copyrights and abuse reports form
Time is now: 20th November 2018 - 16:17:59