Welcome Guest ( Log In | Register )

> Igor Silovoy - Aus Dem Fegefeuer (2012), Funeral Doom Metal/Dark Ambient/Eclectic
post Jun 25 2012, 11:20:41
Post #1

Illuminati
***********
Group: Металариец
Posts: 1,582
Releases: 27
On Forums: 12 years 9 months
Thanks: 2288 time(s)
Russian Federation


(IMG:http://metalarea.org/images/audiocovers/2012_Jun/acov_tid176058_thumb.jpg)

*Artist: Igor Silovoy
*Album: Aus Dem Fegefeuer
*Year: 2012
*Genre: Funeral Doom Metal/Dark Ambient/Eclectic
*Country: Russian Federation (IMG:http://metalarea.org/forum/style_images/flags/Russian%20Federation.png)
*Format: mp3@CBR320kbps
*Size: 98MB

Tracklist:
1. On the Abyss Border (Intro)
2. Endless Road
3. Geblendet von Sternen
4. Moon Reflection in Tranquil Lake
5. Ohne Unterbrechung
6. Agnus Dei (Interlude)
7. Tempel der Angst
8. Das Fegefeuer
9. In Deep Despair Ocean
******************************
Total playing time: 42:45

Preview 1

Extended info
От исполнителя: Мой шестой альбом, на этот раз в стиле Funeral Doom.

Я хочу посвятить его всем людям, которые вынуждены жить в "своём" мире из-за нежелания смириться с жестокостью мира "общего". Всем тем, кто понимает, что я имею ввиду.

(IMG:http://metalarea.org/images/spectrogram/2012_Jun/6ff136955926e65f406d164a31d796c9.png)
Input File: 01. On the Abyss Border (Intro).mp3
Channels : 2
Sample Rate : 44100
Precision : 16-bit
Duration : 00:01:26.44 = 3812092 samples = 6483.15 CDDA sectors
File Size : 3.46M
Bit Rate : 320k
Sample Encoding: MPEG audio (layer I, II or III)
Comments :
Title=On the Abyss Border (Intro)
Artist=Igor Silovoy
Album=Aus dem Fegefeuer
Tracknumber=01
Year=2012
Genre=Funeral Doom



Register


Go to the top of the page
  Insert nick Quick quote
+Quote Post
 
Start new topic
Replies (1 - 6)
post Jun 26 2012, 06:50:16
Post #2

ME[ta]LLOMAN
**************
Group: Металариец
Posts: 5,004
Releases: 3
From: Avdeyevka
On Forums: 14 years 11 months
Thanks: 2048 time(s)
Honduras


ну, похвально, шо..
(IMG:style_emoticons/default/9.gif)
Go to the top of the page
  Insert nick Quick quote
+Quote Post
post Aug 7 2012, 07:33:53
Post #3

Кожаный ублюдок
**************
Group: Металариец
Posts: 3,337
Releases: 6
From: Алчевск (early) Некросибирск (now)
On Forums: 11 years 11 months
Thanks: 2222 time(s)
Russian Federation


Небесной красоты меланхоличный инструментал играет данный российский проект, названный, как я понимаю именем своего творца. Атмосфера похоронного дума и дарк эмбиента, сдобренная небольшой долей электроники и нотами депрессивного блэка, уводит нас в глубины грусти и тоски. Обязательно вернусь к данному произведению в дождливые, долгие осенние вечера. Ведь эта музыка будет очень кстати, я в этом ни капли не сомневаюсь. Прекраснейший релиз, который еще больше убеждает меня в красоте и скором восхождении российского похоронного дума на вершину данного стиля. Моя оценка 10+/10. Превосходно. (IMG:style_emoticons/default/pray.gif) (IMG:style_emoticons/default/pray.gif) (IMG:style_emoticons/default/pray.gif)
Go to the top of the page
  Insert nick Quick quote
+Quote Post
igorsilovoy
post Sep 5 2012, 17:04:49    Сейчас играет: Decoded Feedback - Blood Red Moon
Post #4

Guests team






SatanicPanzer, оценка 10+ из 10 - это нечто, очень сильно для меня. Рад, что высказываюсь через свою музыку не зря. Спасибо тебе за отзыв!

P.S. Бонусом к этому альбому был выпущен эмбиент-сингл "The Place Beyond Reality". Он рассказывает о той же истории, но в другом звуковом формате. Мне очень хотелось бы узнать твоё мнение о нём...
Go to the top of the page
  Insert nick Quick quote
+Quote Post
post Sep 8 2013, 09:16:46
Post #5

Два Литра
**
Group: Завсегдатай
Posts: 158
Releases: 0
On Forums: 10 years 11 months
Thanks: 37 time(s)
Russian Federation


понравилось творение,остальное не слушал,но это - очень хороший альбом. Жаль,что мало (IMG:style_emoticons/default/smile1.gif)
Go to the top of the page
  Insert nick Quick quote
+Quote Post
post Sep 8 2013, 11:09:13
Post #6

Шесть Литров
******
Group: Металариец
Posts: 538
Releases: 0
From: Iceland
On Forums: 11 years 9 months
Thanks: 186 time(s)
Russian Federation


Перезалейте чтоли, файл потёрли, тоже ознакомлюсь с проектом (IMG:style_emoticons/default/9.gif)
Go to the top of the page
  Insert nick Quick quote
+Quote Post
post Sep 8 2013, 17:24:42
Post #7

Два Литра
**
Group: Завсегдатай
Posts: 158
Releases: 0
On Forums: 10 years 11 months
Thanks: 37 time(s)
Russian Federation


Register


Thanks:
(1) InFestus,
Go to the top of the page
  Insert nick Quick quote
+Quote Post

Reply to this topicStart new topic
2 User(s) are reading this topic (2 Guests and 0 Anonymous Users)
0 Members:

 



- Lo-Fi Version Support form
Copyrights and abuse reports form
Time is now: 14th April 2021 - 14:46:24