Welcome Guest ( Log In | Register )

> Vaginal Cadaver - How To Abuse A Woman In 9 Minutes [demo] (2012), Porno Goregrind
post Jun 25 2012, 23:33:52
Post #1

Serial Uploader
Group Icon
Group: V.I.P
Posts: 33,289
Releases: 31565
From: Lithuania
On Forums: 10 years 5 months
Thanks: 360577 time(s)
Lithuania


(IMG:http://metalarea.org/images/audiocovers/2012_Jun/acov_tid176097_thumb.jpg)

*Artist: Vaginal Cadaver
*Album: How To Abuse A Woman In 9 Minutes [demo]
*Year: 2012
*Genre: Porno Goregrind
*Country: Germany (IMG:http://metalarea.org/forum/style_images/flags/Germany.png)
*Format: mp3@CBR320kbps
*Size: 21MB

Tracklist:
01. Deepthroat From Outer Space 01:53
02. Use Her Tears As Lube 01:11
03. Misogyny At Its Best 01:18
04. Fingerfuck 02:07
05. Degradation 00:34
06. Toilet Slave 02:16
******************************
Total playing time: 9:19

(IMG:http://metalarea.org/images/myspace.png)

Extended info


(IMG:http://metalarea.org/images/spectrogram/2012_Jun/454faeff7afd258ff777ddb4c4c293f4.png)
Input File: 05 - Degradation.mp3
Channels : 2
Sample Rate : 44100
Precision : 16-bit
Duration : 00:00:34.80 = 1534592 samples = 2609.85 CDDA sectors
File Size : 1.39M
Bit Rate : 321k
Sample Encoding: MPEG audio (layer I, II or III)
Comments :
Title=Degradation
Artist=Vaginal Cadaver
Album=How To Abuse A Woman In 9 Minutes
Tracknumber=5
Year=2012
Genre=Porngrind


Register


Go to the top of the page
  Insert nick Quick quote
+Quote Post
 
Start new topic
Replies (1 - 2)
post Oct 14 2018, 04:50:21
Post #2

Split Backup Copy
**************
Group: Металариец
Posts: 5,091
Releases: 243
From: с. Мизоново, Ишимский Район, Тюменская область
On Forums: 10 years 11 months
Thanks: 3347 time(s)
Russian Federation


Reupload please
Go to the top of the page
  Insert nick Quick quote
+Quote Post
post Nov 8 2018, 18:52:19    Сейчас играет: re-up done
Post #3

Шесть Литров
******
Group: Металариец
Posts: 542
Releases: 74
From: SteelCity, Upper Austria
On Forums: 5 years 8 months
Thanks: 906 time(s)
Austria


QUOTE(Lanceatum @ Oct 14 2018, 04:50:21) *
Reupload please

► re-up (cbr320)
Register



Thanks:
(1) Lanceatum,
Go to the top of the page
  Insert nick Quick quote
+Quote Post

Reply to this topicStart new topic
2 User(s) are reading this topic (2 Guests and 0 Anonymous Users)
0 Members:

 



- Lo-Fi Version Support form
Copyrights and abuse reports form
Time is now: 17th November 2018 - 09:29:25