Welcome Guest ( Log In | Register )

> Destruction - The Butcher Strikes Back [demo] (1999), Thrash Metal
post Jul 5 2012, 09:39:27
Post #1

Join my religion, or die
**************
Group: Металариец
Posts: 10,324
Releases: 1434
From: Питера
On Forums: 9 years 9 months
Thanks: 18169 time(s)
Russian Federation


(IMG:http://metalarea.org/images/audiocovers/2012_Jul/acov_tid176839_thumb.jpg)

*Artist: Destruction
*Album: The Butcher Strikes Back [demo]
*Year: 1999
*Genre: Thrash Metal
*Country: Germany (IMG:http://metalarea.org/forum/style_images/flags/Germany.png)
*Format: mp3@CBR320kbps
*Size: 26MB

Tracklist:
01. Bestial Invasion 04:35
02. The Butcher Strikes Back 03:07
03. World Domination Of Pain 04:06
******************************
Total playing time: 11:48

Extended info


(IMG:http://metalarea.org/images/spectrogram/2012_Jul/e67dc8998e9ffd5db92d728ca27de0b2.png)
Input File: 01 Bestial Invasion.mp3
Channels : 2
Sample Rate : 44100
Precision : 16-bit
Duration : 00:04:35.83 = 12164059 samples = 20687.2 CDDA sectors
File Size : 11.1M
Bit Rate : 321k
Sample Encoding: MPEG audio (layer I, II or III)
Comments :
Title=Bestial Invasion
Artist=Destruction
Album=The Butcher Strikes Back (Demo)
Tracknumber=01/03
Year=1999
Genre=Thrash Metal


Register


Go to the top of the page
  Insert nick Quick quote
+Quote Post
 
Start new topic
Replies (1 - 1)
post Jul 5 2012, 18:48:01
Post #2

железный нечеловек
**********
Group: Металариец
Posts: 1,185
Releases: 3
From: Уфа
On Forums: 10 years 2 months
Thanks: 389 time(s)
Russian Federation


Вах спасибо! Одно из немногих творений Дестракшн,что у меня не было...
Go to the top of the page
  Insert nick Quick quote
+Quote Post

Reply to this topicStart new topic
1 User(s) are reading this topic (1 Guests and 0 Anonymous Users)
0 Members:

 



- Lo-Fi Version Support form
Copyrights and abuse reports form
Time is now: 24th July 2019 - 01:48:34