Welcome Guest ( Log In | Register )

> Cabal - Satanic Rite [demo] (1991), Death Metal
post Jul 8 2012, 10:56:11
Post #1

Два Литра
**
Group: Завсегдатай
Posts: 176
Releases: 10
On Forums: 9 years 8 months
Thanks: 310 time(s)
Unknown


(IMG:http://metalarea.org/images/audiocovers/2012_Jul/acov_tid177006_thumb.jpg)

*Artist: Cabal
*Album: Satanic Rite [demo]
*Year: 1991
*Genre: Death Metal
*Country: Sweden (IMG:http://metalarea.org/forum/style_images/flags/Sweden.png)
*Format: mp3@CBR320kbps
*Size: 36MB

Tracklist:
01. Intro - Descend to the Grave
02. Satanic Rite
03. Unholy Sacrifice
04. Decomposed
******************************
Total playing time: 15:50

Extended info
Self-released demo.

(IMG:http://metalarea.org/images/spectrogram/2012_Jul/a6ed6594d3274d35625e3913d5a9c2d1.png)
Input File: 02. Satanic Rite.mp3
Channels : 2
Sample Rate : 44100
Precision : 16-bit
Duration : 00:02:54.41 = 7691569 samples = 13080.9 CDDA sectors
File Size : 6.98M
Bit Rate : 320k
Sample Encoding: MPEG audio (layer I, II or III)
Comments :
Title=Satanic Rites
Artist=Cabal
Album=Satanic Rite
Tracknumber=2
Genre=Heavy Metal


Register


Go to the top of the page
  Insert nick Quick quote
+Quote Post
 
Start new topic
Replies (1 - 8)
post Jul 8 2012, 19:27:45
Post #2

Skoddefjellet
**************
Group: Металариец
Posts: 5,741
Releases: 779
From: Sognefjord
On Forums: 13 years 2 months
Thanks: 7088 time(s)
Faroe Islands


период расцвета стокгольмской школы дэта! (IMG:style_emoticons/default/20.gif)
Go to the top of the page
  Insert nick Quick quote
+Quote Post
post Jul 11 2012, 22:41:45
Post #3

Going home. Flying high.
**************
Group: Металариец
Posts: 13,536
Releases: 0
From: The Land of Shadows
On Forums: 15 years 3 months
Thanks: 28136 time(s)
Russian Federation


это вторая их работа, всего у них 4 демки. вот, где бы достать остальные три ?!
качество тут - слушабельное вполне. по музыке - клёвый медленный дэт, со своими фишками и ништяками (чего только колокола во второй вещи стОят, включая клавишный замес, на заднем плане) !! (IMG:style_emoticons/default/pray.gif) ну в паре мест есть влияние autopsy времён "mental..."
в целом, это можно было бы даже обозвать дэт-думом, только до такого my dying bride допрут ещё аж через 2 года, ха! (IMG:style_emoticons/default/15.gif) по мне, так кайф!
вокал - хрипящий, без визга, в меру злой, по тем меркам... (IMG:style_emoticons/default/25.gif) вощемта, я просто в полном восторге от данной демки!


Go to the top of the page
  Insert nick Quick quote
+Quote Post
post May 31 2014, 17:50:15
Post #4

Group: Подсевший
Posts: 19
Releases: 0
From: Italy
On Forums: 7 years 7 months
Thanks: 2 time(s)
Italy


Please Re up file =)
Go to the top of the page
  Insert nick Quick quote
+Quote Post
SIG
post May 31 2014, 19:40:57
Post #5

Guests team






CBR320kbps?
Register


Go to the top of the page
  Insert nick Quick quote
+Quote Post
post Jun 6 2014, 23:13:54
Post #6

Group: Подсевший
Posts: 19
Releases: 0
From: Italy
On Forums: 7 years 7 months
Thanks: 2 time(s)
Italy


thanks for re up..
Go to the top of the page
  Insert nick Quick quote
+Quote Post
post Feb 10 2018, 00:07:22
Post #7

Пять Литров
*****
Group: Металариец
Posts: 442
Releases: 2
On Forums: 13 years 1 month
Thanks: 108 time(s)
Netherlands


Could you please re-up this demo? And if possible the other demos of these Swedens. Thank you.
Go to the top of the page
  Insert nick Quick quote
+Quote Post
post Feb 10 2018, 05:09:13
Post #8

Шесть Литров
******
Group: Металариец
Posts: 530
Releases: 0
From: Argentina
On Forums: 6 years 6 months
Thanks: 442 time(s)
Unknown


PLEASE , REUP .
Go to the top of the page
  Insert nick Quick quote
+Quote Post
post Feb 10 2018, 20:02:26
Post #9

Правь статус, ####!111
**************
Group: Металариец
Posts: 2,577
Releases: 0
On Forums: 6 years 6 months
Thanks: 3325 time(s)
Russian Federation


From the web, same bitrate
Register


Go to the top of the page
  Insert nick Quick quote
+Quote Post

Reply to this topicStart new topic
1 User(s) are reading this topic (1 Guests and 0 Anonymous Users)
0 Members:

 



- Lo-Fi Version Support form
Copyrights and abuse reports form
Time is now: 3rd December 2021 - 05:19:11