Welcome Guest ( Log In | Register )

> Fukpig & Kroh - Fukpig/Kroh [split] (2012), Blackened Grindcore | Heavy/Doom Metal
post Jul 9 2012, 21:13:10
Post #1

Сволочь обыкновенная
**************
Group: Металариец
Posts: 2,598
Releases: 139
From: Брест
On Forums: 11 years 11 months
Thanks: 3364 time(s)
Belarus


(IMG:http://metalarea.org/images/audiocovers/2012_Jul/acov_tid177092_thumb.jpg)

*Artist: Fukpig & Kroh
*Album: Fukpig/Kroh [split]
*Year: 2012
*Genre: Blackened Grindcore | Heavy/Doom Metal
*Country: United Kingdom (IMG:http://metalarea.org/forum/style_images/flags/United%20Kingdom.png) | United Kingdom (IMG:http://metalarea.org/forum/style_images/flags/United%20Kingdom.png)
*Format: mp3@CBR320kbps
*Size: 34MB

Tracklist:
Fukpig:
01. The Prisoner 02:20
02. Docile Subjects 01:32
Kroh:
03. Lucidius 05:42
04. Retribution 05:28
******************************
Total playing time: 15:02

Extended info
Fuckpig MySpace


(IMG:http://metalarea.org/images/spectrogram/2012_Jul/1ddf07a09637ea3dbf63b7a86b2fcf90.png)
Input File: 01 - The Prisoner.mp3
Channels : 2
Sample Rate : 44100
Precision : 16-bit
Duration : 00:02:20.61 = 6200769 samples = 10545.5 CDDA sectors
File Size : 5.62M
Bit Rate : 320k
Sample Encoding: MPEG audio (layer I, II or III)
Comments :
Title=The Prisoner
Artist=Fukpig
Album=Fukpig / Kroh 10" EP
Tracknumber=1/0
Year=2012
Discnumber=0/0


Register


This post has been edited by IronMan: Jul 10 2012, 11:04:59


Go to the top of the page
  Insert nick Quick quote
+Quote Post
 
Start new topic
Replies (1 - 5)
post Jul 10 2012, 14:48:40
Post #2

The Wretched Flesh
**********
Group: Металариец
Posts: 1,009
Releases: 18
From: Arkham Asylum
On Forums: 10 years 11 months
Thanks: 817 time(s)
United States


FLAC Available from




Thanks:
Go to the top of the page
  Insert nick Quick quote
+Quote Post
post Jul 10 2012, 17:27:10
Post #3

Попсовик от брутала
**************
Group: Металариец
Posts: 7,218
Releases: 68
From: Минск
On Forums: 11 years 4 months
Thanks: 6448 time(s)
Belarus


На архивах написано, что от Фукпиг ещё одна сепенка должна быть: In the Absence of Your Saviour (Alternate 10" Mix)
А сплит интересный, особенно Kroh.
Go to the top of the page
  Insert nick Quick quote
+Quote Post
post Jul 14 2012, 02:51:31
Post #4

Два Литра
**
Group: Завсегдатай
Posts: 167
Releases: 0
From: Belo Horizonte
On Forums: 8 years 11 months
Thanks: 43 time(s)
Brazil


Check the video-clip... KILLER:
http://www.youtube.com/watch?v=7AUXySi7NPA

Great band!


Thanks:
Go to the top of the page
  Insert nick Quick quote
+Quote Post
post Jul 14 2012, 17:47:10
Post #5

Правь статус, ####!111
**************
Group: Металариец
Posts: 2,137
Releases: 258
From: 93 banlieue nord hardcore si si
On Forums: 11 years 10 months
Thanks: 3649 time(s)
France


thanks, I fucking love Fukpig (IMG:style_emoticons/default/smile1.gif) I didn't know Kroh but this is not bad either (IMG:style_emoticons/default/smile1.gif)
thanks a lot for posting this (IMG:style_emoticons/default/smile1.gif)
*Format: mp3@CBR320kbps
*Size: 34MB
Register



Thanks:
(1) spazm,
Go to the top of the page
  Insert nick Quick quote
+Quote Post
post Oct 24 2013, 02:05:05
Post #6

Социопат.Маргинал. Мизантроп.Нигилист. Перверзный нарциссист.
**************
Group: Металариец
Posts: 5,564
Releases: 667
From: Город-герой Ленинград
On Forums: 9 years 2 months
Thanks: 6339 time(s)
Russian Federation


ЦИТАТА(spazm @ 9th July 2012 - 21:13:10) *
mp3@CBR320kbps
Register
Go to the top of the page
  Insert nick Quick quote
+Quote Post

Reply to this topicStart new topic
2 User(s) are reading this topic (2 Guests and 0 Anonymous Users)
0 Members:

 



- Lo-Fi Version Support form
Copyrights and abuse reports form
Time is now: 8th April 2020 - 17:23:13