Welcome Guest ( Log In | Register )

> The Howling Wind - Of Babalon (2012), Black Metal
post Jul 14 2012, 00:44:21
Post #1

Serial Uploader
Group Icon
Group: V.I.P
Posts: 37,112
Releases: 35296
From: Lithuania
On Forums: 11 years 9 months
Thanks: 418140 time(s)
Lithuania


(IMG:http://metalarea.org/images/audiocovers/2012_Jul/acov_tid177347_thumb.png)

*Artist: The Howling Wind
*Album: Of Babalon
*Year: 2012
*Genre: Black Metal
*Country: United States (IMG:http://metalarea.org/forum/style_images/flags/United%20States.png)
*Format: mp3@VBR312kbps
*Size: 106MB

Tracklist:
01. The Seal Upon The Tomb 07:50
02. Beast Of The Sea 03:51
03. Graal 05:28
04. Scaling The Walls 06:39
05. The Mountain View 06:04
06. Abominations And Filth 03:41
07. Choronzon 04:15
08. Gateways 06:03
09. Horus/ Aggressor (Hellhammer Cover) 04:39
******************************
Total playing time: 48:30



Extended info
Tracks 1-8 are cbr-320
Track 9 are vbr~258

(IMG:http://metalarea.org/images/spectrogram/2012_Jul/9c9c3ab494880d575845ff8297c76721.png)
Input File: 02. Beast Of The Sea.mp3
Channels : 2
Sample Rate : 44100
Precision : 16-bit
Duration : 00:03:51.55 = 10211443 samples = 17366.4 CDDA sectors
File Size : 9.86M
Bit Rate : 341k
Sample Encoding: MPEG audio (layer I, II or III)
Comments :
Title=Beast Of The Sea
Artist=The Howling Wind
Album=Of Babalon
Tracknumber=02/08
Year=2012
Genre=Black Metal
Discnumber=1/1



Register


Go to the top of the page
  Insert nick Quick quote
+Quote Post
 
Start new topic
Replies (1 - 9)
Kub
post Jul 14 2012, 10:11:32
Post #2

Guests team






превьюшка охренительная, забираем. (IMG:style_emoticons/default/true_black.gif)
да и вообще: скочал - слушаю первый трек, уже шикардос.
Апдэйт: несколько подзатянуто, но оригинальная подача, даже несколько авангардно при этом.
Интересная вещь, стоит ценить, мимо не проходить.


Go to the top of the page
  Insert nick Quick quote
+Quote Post
post Jul 14 2012, 10:20:54
Post #3

Восемь Литров
********
Group: Металариец
Posts: 847
Releases: 163
On Forums: 9 years 6 months
Thanks: 2077 time(s)
Albania


Great stuff
Go to the top of the page
  Insert nick Quick quote
+Quote Post
post Jul 14 2012, 18:09:27    Сейчас играет: Monarque - Le Feu et le Sang
Post #4

Only Black Metal
**************
Group: Металариец
Posts: 3,176
Releases: 686
From: Lemberg
On Forums: 11 years 9 months
Thanks: 14706 time(s)
Ukraine


Заценил, не проникся. Как-то мимо всё прошло и до конца даже не дослушал.
Go to the top of the page
  Insert nick Quick quote
+Quote Post
post Jul 14 2012, 20:29:07
Post #5

Два Литра
**
Group: Завсегдатай
Posts: 101
Releases: 0
From: Черновцы
On Forums: 11 years 1 month
Thanks: 27 time(s)
Ukraine


МОЩЩЩЩАА!!!
Есть классные куски, когда голова сама пускаеться в пляс.
Очень давно ничё такого вкусного не было.
Благодарочка релизёру!
(IMG:style_emoticons/default/25.gif)
Go to the top of the page
  Insert nick Quick quote
+Quote Post
post Jul 14 2012, 23:52:22
Post #6

Маньяк
**********
Group: Металариец
Posts: 1,043
Releases: 0
On Forums: 13 years 1 month
Thanks: 1141 time(s)
Russian Federation


Видео записи альбома http://www.youtube.com/watch?v=nAdKD3f1O7M...player_embedded
и фото http://sincontinuum.blogspot.com/2012/04/r...of-babalon.html
Go to the top of the page
  Insert nick Quick quote
+Quote Post
post Jul 15 2012, 09:42:25
Post #7

Necromancer
Group Icon
Group: Curation team
Posts: 11,013
Releases: 271
From: Зеленоград
On Forums: 13 years 5 months
Thanks: 8842 time(s)
Russian Federation


Ну... Особого восторга не испытал я, но это просто хороший БМ и всё. (IMG:style_emoticons/default/true_black.gif)
Go to the top of the page
  Insert nick Quick quote
+Quote Post
post Jul 26 2012, 16:34:10
Post #8

Маньяк
**********
Group: Металариец
Posts: 1,414
Releases: 0
From: Рівне
On Forums: 11 years 3 weeks
Thanks: 144 time(s)
Ukraine


а 9й трек?
Go to the top of the page
  Insert nick Quick quote
+Quote Post
post Jul 26 2012, 17:06:52
Post #9

Serial Uploader
Group Icon
Group: V.I.P
Posts: 37,112
Releases: 35296
From: Lithuania
On Forums: 11 years 9 months
Thanks: 418140 time(s)
Lithuania


QUOTE(Koscheyushka @ Jul 26 2012, 18:34:10) *
а 9й трек?


А 9-й тоже есть. Хороший ковер, в духе старых Hellhammer/Celtic Frost
Go to the top of the page
  Insert nick Quick quote
+Quote Post
post Aug 6 2012, 16:47:11
Post #10

Правь статус, ####!111
**************
Group: Металариец
Posts: 2,137
Releases: 258
From: 93 banlieue nord hardcore si si
On Forums: 11 years 10 months
Thanks: 3648 time(s)
France


thanks, excelent release ! (IMG:style_emoticons/default/smile1.gif)

*Format: mp3@CBR320kbps
*Size: 97MB
Register


Thanks:
(1) samezzz,
Go to the top of the page
  Insert nick Quick quote
+Quote Post

Reply to this topicStart new topic
2 User(s) are reading this topic (2 Guests and 0 Anonymous Users)
0 Members:

 



- Lo-Fi Version Support form
Copyrights and abuse reports form
Time is now: 3rd April 2020 - 11:40:16