Welcome Guest ( Log In | Register )

> Xyz - Gates Of Death [ep] (2001), Raw Black Metal
post Jul 15 2012, 15:58:23
Post #1

Литр
*
Group: Подсевший
Posts: 66
Releases: 18
On Forums: 8 years 1 month
Thanks: 209 time(s)
Unknown


(IMG:http://metalarea.org/images/audiocovers/nocover.gif)

*Artist: Xyz
*Album: Gates Of Death [ep]
*Year: 2001
*Genre: Raw Black Metal
*Country: Russian Federation (IMG:http://metalarea.org/forum/style_images/flags/Russian%20Federation.png)
*Format: mp3@CBR320kbps
*Size: 36MB

Tracklist:
1. Abyss Alone 01:20
2. Gates of Death 02:57
3. In Teresin 03:34
4. Punishment 01:57
5. Eternal Sleep 00:28
6. Folter 02:05
7. To Wall 01:57
8. XYZ 01:03
9. Final 01:09
******************************
Total playing time: 16:30

Extended info


(IMG:http://metalarea.org/images/spectrogram/2012_Jul/b4b274d01a98de89c6e569d9621626a9.png)
Input File: 1 ABYSS ALONE.mp3
Channels : 2
Sample Rate : 48000
Precision : 16-bit
Duration : 00:01:20.69 = 3873168 samples ~ 6051.82 CDDA sectors
File Size : 3.23M
Bit Rate : 320k
Sample Encoding: MPEG audio (layer I, II or III)
Comments :
Tracknumber=1
Year=2012
Genre=0



Register


Go to the top of the page
  Insert nick Quick quote
+Quote Post
 
Start new topic
Replies (1 - 4)
post Jul 15 2012, 16:10:44
Post #2

эпистолярный садист
**************
Group: Металариец
Posts: 2,459
Releases: 1
From: Den Store Ruin
On Forums: 11 years 4 months
Thanks: 5568 time(s)
Ukraine


Название как-то неоднозначно символизирует...
Go to the top of the page
  Insert nick Quick quote
+Quote Post
post Jul 15 2012, 16:25:03
Post #3

_ - = # Thrashogolic # = - _ ... а давайте поржём все вместе
**************
Group: Металариец
Posts: 21,095
Releases: 4444
From: 404
On Forums: 9 years 3 months
Thanks: 27591 time(s)
Ukraine


ЦИТАТА(waldemardr @ 15th July 2012 - 18:10:44) *
Название как-то неоднозначно символизирует...
Да вообще за сегодня "поднимали" ещё такие блэк группы:
Perdition - Antihuman Divinity [ep] (2007)
Zaebos - Demo 2004 [Demo] (2004)


Thanks:
Go to the top of the page
  Insert nick Quick quote
+Quote Post
post Jul 15 2012, 17:09:57
Post #4

эпистолярный садист
**************
Group: Металариец
Posts: 2,459
Releases: 1
From: Den Store Ruin
On Forums: 11 years 4 months
Thanks: 5568 time(s)
Ukraine


PERDITION (Погибель) ещё ладно... а вот ZAEBOS - это да, действительно zaebos (IMG:style_emoticons/default/1488.gif) (IMG:style_emoticons/default/15.gif)

По сабжу вспомнилась хохма из книги Андрея Ломачинского "Академия родная":
QUOTE
Традиционно составляется сборник ежегодных тезисов научных работ курсантов, куда частенько закрадываются ляпы.
Исследовали влияние нового препарата на состояние летчика в полете – на определённой высоте при маневре у летчика возникла боль в ухе. Приходит письмо из Научного Отдела Академии, где сказано, что они, конечно, все понимают, боль у летчика возникает, но нельзя ли все-таки использовать специальную терминологию, есть же латынь в конце концов…
Как оказалось, набирая текст «боль в ухе», перепутали буквы, и боль стала возникать совсем в другом месте.


Thanks:
Go to the top of the page
  Insert nick Quick quote
+Quote Post
post Jul 15 2012, 17:28:02
Post #5

Пять Литров
*****
Group: Металариец
Posts: 401
Releases: 1
On Forums: 7 years 3 months
Thanks: 179 time(s)
South Korea


Фигня.
Go to the top of the page
  Insert nick Quick quote
+Quote Post

Reply to this topicStart new topic
1 User(s) are reading this topic (1 Guests and 0 Anonymous Users)
0 Members:

 



- Lo-Fi Version Support form
Copyrights and abuse reports form
Time is now: 16th October 2019 - 01:05:57