Welcome Guest ( Log In | Register )

> Dvorhead - House Of Pain (2005), Brutal Death Metal
post Jul 18 2012, 19:20:36
Post #1

Thrash, Beer & Violence
**************
Group: Металариец
Posts: 5,503
Releases: 2772
From: Крестов Брод (Russland)
On Forums: 12 years 11 months
Thanks: 40495 time(s)
Russian Federation


(IMG:http://metalarea.org/images/audiocovers/2012_Jul/acov_tid177734_thumb.jpg)

*Artist: Dvorhead
*Album: House Of Pain
*Year: 2005
*Genre: Brutal Death Metal
*Country: France (IMG:http://metalarea.org/forum/style_images/flags/France.png)
*Format: mp3@CBR320kbps
*Size: 103MB

Tracklist:
1.Guilty 03:15
2.Scared 03:33
3.Epileptycum 03:46
4.Dvorhead 02:19
5.French Apocalyptica 04:44
6.Genos Caedere 03:19
7.Devilish Metal 02:24
8.Children's Rape 04:25
9.Eat Your Shit 04:07
10.Take Your Place 07:48
11.Heavens Butchery 02:14
12.How Far ? 02:53
******************************
Total playing time: 44:47

OFFICIAL
(IMG:http://metalarea.org/images/myspace.png)

Extended info
Единственный альбом...
ps "News du 5/04/2007 - THE END"

(IMG:http://metalarea.org/images/spectrogram/2012_Jul/61f76ff948f1a77f587cd761381174f1.png)
Input File: 01. Guilty.mp3
Channels : 2
Sample Rate : 44100
Precision : 16-bit
Duration : 00:03:15.24 = 8610128 samples = 14643.1 CDDA sectors
File Size : 7.81M
Bit Rate : 320k
Sample Encoding: MPEG audio (layer I, II or III)
Comments :
Title=Guilty
Artist=Dvorhead
Album=House of Pain
Tracknumber=01
Year=2005
Genre=Brutal Death Metal
Discnumber=1/1



Register


Go to the top of the page
  Insert nick Quick quote
+Quote Post
 
Start new topic
Replies (1 - 6)
post Jul 18 2012, 20:51:00
Post #2

Crush The Enemies
**************
Group: Металариец
Posts: 4,304
Releases: 0
From: Moscow
On Forums: 11 years 3 weeks
Thanks: 2693 time(s)
Russian Federation


Не подкачали лягушатники - хоть и единственный,но очень неплохой альбомец забабахали!
Go to the top of the page
  Insert nick Quick quote
+Quote Post
post Jul 19 2012, 08:38:54
Post #3

Join my religion, or die
**************
Group: Металариец
Posts: 10,783
Releases: 1548
From: Питера
On Forums: 10 years 11 months
Thanks: 20191 time(s)
Russian Federation


Демка ещё была. в 2003.
Go to the top of the page
  Insert nick Quick quote
+Quote Post
post Jul 19 2012, 09:01:22
Post #4

ME[ta]LLOMAN
**************
Group: Металариец
Posts: 4,977
Releases: 3
From: Avdeyevka
On Forums: 14 years 5 months
Thanks: 1984 time(s)
Honduras


прелестно! (ц)
Go to the top of the page
  Insert nick Quick quote
+Quote Post
post Jul 27 2012, 17:36:56
Post #5

brutalcesar
**************
Group: Металариец
Posts: 17,982
Releases: 67
From: Рязань
On Forums: 11 years 8 months
Thanks: 9884 time(s)
Russian Federation


Жёстко!!
И звук хорош!!

Не совсем и брутал, но немножко грайнд (IMG:style_emoticons/default/metaler.gif)
Go to the top of the page
  Insert nick Quick quote
+Quote Post
post Sep 16 2020, 02:07:45
Post #6

Восемь Литров
********
Group: Металариец
Posts: 827
Releases: 0
On Forums: 2 years 2 months
Thanks: 25 time(s)
Serbia


PLS REUPLOAD
Go to the top of the page
  Insert nick Quick quote
+Quote Post
post Sep 16 2020, 16:41:19
Post #7

Group Icon
Group: S-moderation team
Posts: 16,760
Releases: 1441
From: Zagreb
On Forums: 9 years 6 months
Thanks: 75983 time(s)
Croatia


Register


Thanks:
(1) Olethros,
Go to the top of the page
  Insert nick Quick quote
+Quote Post

Reply to this topicStart new topic
2 User(s) are reading this topic (2 Guests and 0 Anonymous Users)
0 Members:

 



- Lo-Fi Version Support form
Copyrights and abuse reports form
Time is now: 23rd September 2020 - 03:50:46