Welcome Guest ( Log In | Register )

> Oz - Vinyl Tracks [best of/compilation] (2012), Heavy Metal
post Jul 24 2012, 13:57:05
Post #1

Serial Uploader
Group Icon
Group: V.I.P
Posts: 32,459
Releases: 30758
From: Lithuania
On Forums: 9 years 11 months
Thanks: 353356 time(s)
Lithuania


(IMG:http://metalarea.org/images/audiocovers/2012_Jul/acov_tid178129_thumb.jpg)

*Artist: Oz
*Album: Vinyl Tracks [best of/compilation]
*Year: 2012
*Genre: Heavy Metal
*Country: Finland (IMG:http://metalarea.org/forum/style_images/flags/Finland.png)
*Format: mp3@CBR320kbps
*Size: 157MB

Tracklist:
01. Eyes Of The Stranger 05:58
02. Firestarter 04:30
03. Sound Of Speed 04:02
04. The Show Must Go On 05:31
05. Teenage Rampage 03:34
06. Hey You 04:15
07. Call From Your Eyes 04:23
08. Rather Knight 04:17
09. Second-Hand Lady 04:14
10. In The Chains 05:18
11. Third Warning 05:21
12. Crucified 04:28
13. Runner 04:13
14. Samurai 04:09
15. Total Metal 03:21
16. Turn The Cross Upside Down 04:30
******************************
Total playing time: 1:12:04

(IMG:http://metalarea.org/images/myspace.png)

Extended info


(IMG:http://metalarea.org/images/spectrogram/2012_Jul/86cb9ed2214ace911aac6461bee936de.png)
Input File: 02. Firestarter.mp3
Channels : 2
Sample Rate : 44100
Precision : 16-bit
Duration : 00:04:30.40 = 11924420 samples = 20279.6 CDDA sectors
File Size : 10.8M
Bit Rate : 320k
Sample Encoding: MPEG audio (layer I, II or III)
Comments :
Title=Firestarter
Artist=Oz
Album=Vinyl Tracks
Tracknumber=2/16
Year=2012
Genre=metal
Discnumber=1/1


Register


Вернуться к началу страницы
  Insert nick Quick quote
+Цитировать сообщение
 
Создать новую тему
Replies (1 - 1)
post Jan 13 2018, 10:48:54
Post #2

Group: Подсевший
Posts: 10
Releases: 0
On Forums: 1 year 6 months
Thanks: 0 time(s)
Cyprus


dead link can anyone re up it ?
Вернуться к началу страницы
  Insert nick Quick quote
+Цитировать сообщение

ОтветитьСоздать новую тему
1 User(s) are reading this topic (1 Guests and 0 Anonymous Users)
0 Members:

 



- Lo-Fi Version Support form
Copyrights and abuse reports form
Time is now: 23rd May 2018 - 15:40:23