Welcome Guest ( Log In | Register )

> From Beyond - One Year [ep] (2012), Psychedelic Doom/Stoner Metal
post Jul 30 2012, 10:50:54
Post #1

Serpent Doom
**************
Group: Металариец
Posts: 2,126
Releases: 654
From: Moscow region
On Forums: 11 years 10 months
Thanks: 11783 time(s)
Russian Federation


(IMG:http://metalarea.org/images/audiocovers/2012_Jul/acov_tid178539_thumb.jpg)

*Artist: From Beyond
*Album: One Year [ep]
*Year: 2012
*Genre: Psychedelic Doom/Stoner Metal
*Country: United States (IMG:http://metalarea.org/forum/style_images/flags/United%20States.png)
*Format: mp3@CBR320kbps
*Size: 60MB

Tracklist:
1. Evil (From Beyond) 05:02
2. The Heavy Wait 06:18
3. Warhorse 04:16
4. One Year 08:57
******************************
Total playing time: 24:33


(IMG:http://metalarea.org/images/youtube.png)

Extended info


(IMG:http://metalarea.org/images/spectrogram/2012_Jul/e2a3015d9ed838632a0758f6061998da.png)
Input File: 03 Warhorse.mp3
Channels : 2
Sample Rate : 44100
Precision : 16-bit
Duration : 00:04:17.02 = 11334538 samples = 19276.4 CDDA sectors
File Size : 10.4M
Bit Rate : 325k
Sample Encoding: MPEG audio (layer I, II or III)
Comments :
Title=Warhorse
Artist=From Beyond
Album=One Year
Tracknumber=3/4
Year=2012
Genre=Doom Metal



Register


Go to the top of the page
  Insert nick Quick quote
+Quote Post
 
Start new topic
Replies (1 - 4)
post Jul 30 2012, 11:20:20
Post #2

sudo reboot
******
Group: Металариец
Posts: 643
Releases: 6
From: Moscow
On Forums: 11 years 5 months
Thanks: 730 time(s)
Russian Federation


Фу ты блин, думал чехи ожили.
Go to the top of the page
  Insert nick Quick quote
+Quote Post
post Nov 14 2019, 04:07:51
Post #3

Group: Дух
Posts: 1
Releases: 0
On Forums: 7 months 3 weeks
Thanks: 0 time(s)
Portugal


Hi

This link is not working, is it possible to reupload the second link (Yandex)?
Sorry I can't really speak russian.

Thanks
Go to the top of the page
  Insert nick Quick quote
+Quote Post
post Nov 15 2019, 08:18:32
Post #4

Serpent Doom
**************
Group: Металариец
Posts: 2,126
Releases: 654
From: Moscow region
On Forums: 11 years 10 months
Thanks: 11783 time(s)
Russian Federation


Reuploaded


Thanks:
Go to the top of the page
  Insert nick Quick quote
+Quote Post
post Nov 15 2019, 08:20:36
Post #5

Правь статус, ####!111
**************
Group: Металариец
Posts: 46,729
Releases: 729
On Forums: 11 years 1 month
Thanks: 39375 time(s)
Russian Federation


Спасибо. Обложка настраивает на нужный лад, а внутри чистейший Блэк Саббат, так что любителям англичан не рекомендую мимо проиходить.
Go to the top of the page
  Insert nick Quick quote
+Quote Post

Reply to this topicStart new topic
2 User(s) are reading this topic (2 Guests and 0 Anonymous Users)
0 Members:

 



- Lo-Fi Version Support form
Copyrights and abuse reports form
Time is now: 5th July 2020 - 10:37:21