Welcome Guest ( Log In | Register )

> Intorment - The Demo's 1994 - 1995 [best of/compilation] (2002), Black Metal
post Jul 30 2012, 22:06:10
Post #1

добрый доктор
**************
Group: Металариец
Posts: 3,184
Releases: 1083
From: коста-сити
On Forums: 9 years 4 months
Thanks: 19598 time(s)
Russian Federation


(IMG:http://metalarea.org/images/audiocovers/2012_Jul/acov_tid178586_thumb.jpg)

*Artist: Intorment
*Album: The Demo's 1994 - 1995 [best of/compilation]
*Year: 2002
*Genre: Black Metal
*Country: New Zealand (IMG:http://metalarea.org/forum/style_images/flags/New%20Zealand.png)
*Format: mp3@CBR320kbps
*Size: 100MB

Tracklist:
1. Grip of the Serpent 2:46
2. Swept in Unholy Darkness 3:50
3. Revolt to Exile 3:06
4. Perverted & Perverting 2:36
5. Through Which it Came to Be 4:17
6. Fixed With Death's Eye 4:04
7. Solitudes Silent Regent 4:58
8. Some kind of Angel 2:24
9. Down in the Pentagram 3:53
10. Death of the Sun 6:40
11. Lullabys from the Stake 4:16
12. Inversions Agents & Cohorts 0:53
******************************
Total playing time: 43:43

Extended info
просто ни какой информации...
средне-темповый блэк, иногда зловеще ускоряются, как мне показалось присутствуют авaнгардные фишечки...
A CD-R compilation of the two demos and one extra track.
Tracks 1 - 6, Demo 1 1994.
Tracks 7 - 11, Demo 2 1995.
(IMG:http://www.metal-archives.com/images/1/0/8/1/108107_photo.jpg)

(IMG:http://metalarea.org/images/spectrogram/2012_Jul/9fc180f235a8b4c9c73898b57a46c62c.png)
Input File: 01-Grip_Of_The_Serpent.mp3
Channels : 2
Sample Rate : 44100
Precision : 16-bit
Duration : 00:02:46.27 = 7332595 samples = 12470.4 CDDA sectors
File Size : 6.71M
Bit Rate : 323k
Sample Encoding: MPEG audio (layer I, II or III)
Comments :
Title=Grip Of The Serpent
Artist=Intorment
Album=The Demo's - 1994-1995
Tracknumber=1/12
Year=1995
Genre=Black Metal



Register


Go to the top of the page
  Insert nick Quick quote
+Quote Post
 
Start new topic
Replies (1 - 8)
post Jul 31 2012, 20:10:59
Post #2

добрый доктор
**************
Group: Металариец
Posts: 3,184
Releases: 1083
From: коста-сити
On Forums: 9 years 4 months
Thanks: 19598 time(s)
Russian Federation


Register


Thanks:
Go to the top of the page
  Insert nick Quick quote
+Quote Post
post Sep 20 2012, 09:18:21
Post #3

lynched
**************
Group: Металариец
Posts: 3,091
Releases: 19
On Forums: 7 years 8 months
Thanks: 1459 time(s)
Unknown


Давненько я не слушал такого сафферичного материала.
Первое демо - жутчайший отстой - элементарный блэк простой как три копейки сыгранный на двух струнах и трех риффах, которые набивают оскомину секунд через 10.
Второе демо - послушабельное. Мысли в игре стало больше, появились соло работы.
Вообщем - нехорошо, но и не ужасно.
Go to the top of the page
  Insert nick Quick quote
+Quote Post
post Mar 27 2013, 01:12:58
Post #4

Четыре Литра
****
Group: Металариец
Posts: 386
Releases: 0
On Forums: 9 years 8 months
Thanks: 34 time(s)
United States


Re-up please?
Go to the top of the page
  Insert nick Quick quote
+Quote Post
post Mar 27 2013, 03:56:33
Post #5

добрый доктор
**************
Group: Металариец
Posts: 3,184
Releases: 1083
From: коста-сити
On Forums: 9 years 4 months
Thanks: 19598 time(s)
Russian Federation


ЦИТАТА(Patrick @ Mar 27 2013, 03:12:58) *
Re-up please?
Register


Thanks:
Go to the top of the page
  Insert nick Quick quote
+Quote Post
post Jul 25 2014, 21:19:38
Post #6

aggresive exumator!
********
Group: Металариец
Posts: 886
Releases: 0
On Forums: 6 years 8 months
Thanks: 20 time(s)
Unknown


reupload please?
Go to the top of the page
  Insert nick Quick quote
+Quote Post
post Jul 28 2014, 20:06:22
Post #7

добрый доктор
**************
Group: Металариец
Posts: 3,184
Releases: 1083
From: коста-сити
On Forums: 9 years 4 months
Thanks: 19598 time(s)
Russian Federation


ЦИТАТА(sacramentary @ Jul 25 2014, 23:19:38) *
reupload please?

Register


Thanks:
Go to the top of the page
  Insert nick Quick quote
+Quote Post
post Sep 13 2017, 18:24:33
Post #8

Пять Литров
*****
Group: Металариец
Posts: 461
Releases: 0
On Forums: 6 years 1 month
Thanks: 33 time(s)
Belarus


перезалейте,пожалуйста
Go to the top of the page
  Insert nick Quick quote
+Quote Post
post Sep 15 2017, 08:04:42
Post #9

...
Group Icon
Group: S-moderation team
Posts: 6,234
Releases: 1276
On Forums: 7 years 3 months
Thanks: 31585 time(s)
Croatia


Register


Go to the top of the page
  Insert nick Quick quote
+Quote Post

Reply to this topicStart new topic
1 User(s) are reading this topic (1 Guests and 0 Anonymous Users)
0 Members:

 



- Lo-Fi Version Support form
Copyrights and abuse reports form
Time is now: 23rd June 2018 - 11:28:20