Welcome Guest ( Log In | Register )

> Bowel Fuck - ManBearPig [ep] (2012), Goregrind
post Aug 12 2012, 08:30:34
Post #1

Serial Uploader
Group Icon
Group: V.I.P
Posts: 37,203
Releases: 35385
From: Lithuania
On Forums: 12 years 3 weeks
Thanks: 421013 time(s)
Lithuania


(IMG:http://metalarea.org/images/audiocovers/2012_Aug/acov_tid179485_thumb.jpg)

*Artist: Bowel Fuck
*Album: ManBearPig [ep]
*Year: 2012
*Genre: Goregrind
*Country: Czech Republic (IMG:http://metalarea.org/forum/style_images/flags/Czech%20Republic.png)
*Format: mp3@CBR320kbps
*Size: 37MB

Tracklist:
01. LickTheGrenade 01:38
02. G_4_AGT 01:38
03. OneMore 01:45
04. F&F FutureFuck 02:06
05. FistFor"BetterClarity 00:40
06. MouthWideOpen 02:00
07. SqueezeAndDie 00:51
08. ManBearPig 02:06
09. DefiledMind 01:33
10. Feeders 01:18
11. DDQ 02:34
******************************
Total playing time: 18:09

Preview 1

Extended info


(IMG:http://metalarea.org/images/spectrogram/2012_Aug/151a370b017ffe626b9f5e3b1420e52a.png)
Input File: 09 DefiledMind.mp3
Channels : 2
Sample Rate : 44100
Precision : 16-bit
Duration : 00:01:33.85 = 4138917 samples = 7038.97 CDDA sectors
File Size : 3.75M
Bit Rate : 320k
Sample Encoding: MPEG audio (layer I, II or III)
Comments :
Title=DefiledMind
Artist=Bowel Fuck
Album=Manbearpig
Tracknumber=9
Year=2012
Genre=Goregrind



Register


Go to the top of the page
  Insert nick Quick quote
+Quote Post
 
Start new topic
Replies (1 - 5)
post Jan 2 2013, 12:25:49
Post #2

Сволочь обыкновенная
**************
Group: Металариец
Posts: 2,638
Releases: 146
From: Брест
On Forums: 12 years 2 months
Thanks: 3476 time(s)
Belarus


Приятный "винтажный" звук, чуствуется, что старую школу тут любят и ценят, ну и играют очень неплохо. Мне понравилось.
ЗЫ судил по перевому трэку на майспэйс, однако отдельные темы оказались еще тем шлаком.
Go to the top of the page
  Insert nick Quick quote
+Quote Post
post Jan 2 2013, 22:44:43
Post #3

добрый хищник
********
Group: Металариец
Posts: 888
Releases: 26
From: Mакеевка
On Forums: 13 years 4 months
Thanks: 498 time(s)
Ukraine


(IMG:style_emoticons/default/20.gif) нетленные шедевры - угарные "G_4_AGT" и "Squeeze and Die"
Go to the top of the page
  Insert nick Quick quote
+Quote Post
post Jan 3 2013, 23:56:13
Post #4

Правь статус, ####!111
**************
Group: Металариец
Posts: 3,941
Releases: 14
From: Москва и МО
On Forums: 14 years 2 days
Thanks: 1149 time(s)
Russian Federation


Блин! Дико прусь с такого звука! Нереально круто!
Go to the top of the page
  Insert nick Quick quote
+Quote Post
post Jan 4 2013, 17:27:08
Post #5

Два Литра
**
Group: Завсегдатай
Posts: 107
Releases: 0
From: Екатеринбург
On Forums: 13 years 11 months
Thanks: 15 time(s)
Russian Federation


Sunlight studio типа?
или это гитарный пресет щас такой? (IMG:style_emoticons/default/smile1.gif)
Go to the top of the page
  Insert nick Quick quote
+Quote Post
post Jun 30 2020, 14:23:05
Post #6

Правь статус, ####!111
**************
Group: Металариец
Posts: 2,978
Releases: 0
From: MoscoW
On Forums: 13 years 7 months
Thanks: 2290 time(s)
Russian Federation


BOWELFUCK:


Bizarre Leprous Production:


Залито на Мыло - 38.2Mb в 320kbps + Full Covers!!!:
Register

(IMG:style_emoticons/default/metaler.gif)


Thanks:
(1) varlam4,
Go to the top of the page
  Insert nick Quick quote
+Quote Post

Reply to this topicStart new topic
2 User(s) are reading this topic (2 Guests and 0 Anonymous Users)
0 Members:

 



- Lo-Fi Version Support form
Copyrights and abuse reports form
Time is now: 3rd July 2020 - 15:24:23