Welcome Guest ( Log In | Register )

> Human Demise - Frozen [demo] (2011), Death/Doom Metal/Grindcore
post Aug 15 2012, 12:08:13
Post #1

Serial Uploader
Group Icon
Group: V.I.P
Posts: 37,612
Releases: 35784
From: Lithuania
On Forums: 13 years 3 months
Thanks: 433494 time(s)
Lithuania


(IMG:http://metalarea.org/images/audiocovers/2012_Aug/acov_tid179679_thumb.jpg)

*Artist: Human Demise
*Album: Frozen [demo]
*Year: 2011
*Genre: Death/Doom Metal/Grindcore
*Country: Canada (IMG:http://metalarea.org/forum/style_images/flags/Canada.png)
*Format: mp3@CBR320kbps
*Size: 62MB

Tracklist:
01. War Effects 04:48
02. Parasitic 03:45
03. The Remaining 05:04
04. Memories 02:58
05. Antigenic Shift 04:17
06. Staying Down 04:35
07. Nobody Left To Kill Me 00:54
******************************
Total playing time: 26:21

(IMG:http://metalarea.org/images/myspace.png)

Extended info


(IMG:http://metalarea.org/images/spectrogram/2012_Aug/82662e218c33a069fe0e7d8a45ef3ca8.png)
Input File: Human Demise - Frozen - 02 Parasitic.mp3
Channels : 2
Sample Rate : 44100
Precision : 16-bit
Duration : 00:03:45.22 = 9932290 samples = 16891.6 CDDA sectors
File Size : 9.21M
Bit Rate : 327k
Sample Encoding: MPEG audio (layer I, II or III)
Comments :
Title=Parasitic
Artist=Human Demise
Album=Frozen
Tracknumber=2
Year=2011



Register


Go to the top of the page
  Insert nick Quick quote
+Quote Post
 
Start new topic
Replies (1 - 2)
post Mar 19 2021, 21:46:29
Post #2

threat
******
Group: Металариец
Posts: 648
Releases: 0
On Forums: 15 years 1 month
Thanks: 85 time(s)
Turkey


Can you renew the link
Go to the top of the page
  Insert nick Quick quote
+Quote Post
post Jun 28 2021, 05:17:57
Post #3

Литр
*
Group: Подсевший
Posts: 51
Releases: 0
On Forums: 1 year 11 months
Thanks: 39 time(s)
China


QUOTE(quarantine @ Mar 20 2021, 04:46:29) *
Can you renew the link

bandcamp provides free download
Go to the top of the page
  Insert nick Quick quote
+Quote Post

Reply to this topicStart new topic
1 User(s) are reading this topic (1 Guests and 0 Anonymous Users)
0 Members:

 



- Lo-Fi Version Support form
Copyrights and abuse reports form
Time is now: 17th September 2021 - 15:08:34