Welcome Guest ( Log In | Register )

> Essence Of Datum - I Am Alpha And Omega [promo] (2012), Instrumental/Melodic/Technical Death Metal
post Aug 17 2012, 06:14:28
Post #1

Правь статус, ####!111
**************
Group: Металариец
Posts: 6,034
Releases: 5559
From: Lithuania
On Forums: 13 years 1 month
Thanks: 40731 time(s)
Lithuania


(IMG:http://metalarea.org/images/audiocovers/2012_Aug/acov_tid179816_thumb.jpg)

*Artist: Essence Of Datum
*Album: I Am Alpha And Omega [promo]
*Year: 2012
*Genre: Instrumental/Melodic/Technical Death Metal
*Country: Belarus (IMG:http://metalarea.org/forum/style_images/flags/Belarus.png)
*Format: mp3@CBR320kbps
*Size: 27MB

Tracklist:
1. I am Alpha and Omega 02:35
2. Mixture of Form 03:18
3. Begining & End 05:38
******************************
Total playing time: 11:31



Extended info


(IMG:http://metalarea.org/images/spectrogram/2012_Aug/49dc68c9ed1051f7e269527f51e7fdab.png)
Input File: 01 I Am Alpha and Omega.mp3
Channels : 2
Sample Rate : 44100
Precision : 16-bit
Duration : 00:02:35.08 = 6839028 samples = 11631 CDDA sectors
File Size : 6.30M
Bit Rate : 325k
Sample Encoding: MPEG audio (layer I, II or III)
Comments :
Title=I Am Alpha and Omega
Artist=Essence of Datum
Album=I Am Alpha and Omega
Tracknumber=1
Year=2012
Genre=9



Register


Go to the top of the page
  Insert nick Quick quote
+Quote Post
 
Start new topic
Replies (1 - 1)
post Jul 29 2019, 20:23:35
Post #2

Маньяк
**********
Group: Металариец
Posts: 1,217
Releases: 91
On Forums: 6 years 1 month
Thanks: 2497 time(s)
Unknown


Reuploaded Mp3
Register


Thanks:
Go to the top of the page
  Insert nick Quick quote
+Quote Post

Reply to this topicStart new topic
2 User(s) are reading this topic (2 Guests and 0 Anonymous Users)
0 Members:

 



- Lo-Fi Version Support form
Copyrights and abuse reports form
Time is now: 17th November 2019 - 08:52:30