Welcome Guest ( Log In | Register )

> И неформату есть предел.

Рэп/хип-хоп/шансон/поп удаляются. Для них есть свои порталы.

> Кулай - Мы Пришли Со Звёзд (2012), Space Ambient/Electronic
post Aug 19 2012, 08:37:52
Post #1

0,5 минералки и шоколадка
**************
Group: Металариец
Posts: 2,817
Releases: 119
From: Karelia
On Forums: 11 years 2 weeks
Thanks: 3859 time(s)
NATO


(IMG:http://metalarea.org/images/audiocovers/2012_Aug/acov_tid179972_thumb.png)

*Artist: Кулай
*Album: Мы Пришли Со Звёзд
*Year: 2012
*Genre: Space Ambient/Electronic
*Country: Ukraine (IMG:http://metalarea.org/forum/style_images/flags/Ukraine.png)
*Format: mp3@CBR320kbps
*Size: 66MB

Tracklist:
1. Славянская Одиссея 4:01
2. Воспоминания о небе 3:44
3. Млечный Путь 4:04
4. Затерянная Вайтмара 4:06
5. Космическая индустрия 4:20
6. Неоднородность пространства 4:50
7. Новый Свет 4:14
******************************
Total playing time: 29:19

Preview 1

Extended info


(IMG:http://metalarea.org/images/spectrogram/2012_Aug/7fb9a527216ac84e1adb1a178a208774.png)
Input File: 01. Slavyanskaya_Odisseya.mp3
Channels : 2
Sample Rate : 44100
Precision : 16-bit
Duration : 00:04:00.98 = 10627306 samples = 18073.6 CDDA sectors
File Size : 9.63M
Bit Rate : 320k
Sample Encoding: MPEG audio (layer I, II or III)
Comments :
Title=Ñëàâÿíñêàÿ Îäèññåÿ
Artist=Êóëàé
Album=ГЊГ» ïðèøëè Г±” çâ¸çä
Tracknumber=1
Year=2012
Genre=52



Register


Go to the top of the page
  Insert nick Quick quote
+Quote Post
 
Start new topic
Replies (1 - 6)
post Aug 19 2012, 12:07:50
Post #2

10 граммов леса
***********
Group: Металариец
Posts: 1,501
Releases: 0
On Forums: 9 years 6 months
Thanks: 891 time(s)
Germany


Полный П (IMG:style_emoticons/default/headcrab.png)


Thanks:
Go to the top of the page
  Insert nick Quick quote
+Quote Post
post Aug 19 2012, 12:23:00
Post #3

Время Мары
**************
Group: Металариец
Posts: 3,151
Releases: 436
From: Харьков
On Forums: 10 years 11 months
Thanks: 8756 time(s)
Ukraine


Обложка зачётная (IMG:style_emoticons/default/9.gif)
Go to the top of the page
  Insert nick Quick quote
+Quote Post
post Aug 19 2012, 23:49:04
Post #4

Far From Humans
***
Group: Завсегдатай
Posts: 276
Releases: 7
On Forums: 11 years 4 days
Thanks: 582 time(s)
Vatican City


ЦИТАТА(vasilisk @ Aug 19 2012, 14:23:00) *
Обложка зачётная (IMG:style_emoticons/default/9.gif)


Это Всеволод Иванов. Вроде как-то в курилке уже обсуждали это "творчество".
http://antiloh.info/iskusstvo/xudozhnik-vs...oriya-rusi.html
(IMG:http://antiloh.info/mediafiles/35_Vsevolod_Ivanov_Vedicheskaya_Rus.jpg)
Go to the top of the page
  Insert nick Quick quote
+Quote Post
post Aug 20 2012, 02:50:31
Post #5

10 граммов леса
***********
Group: Металариец
Posts: 1,501
Releases: 0
On Forums: 9 years 6 months
Thanks: 891 time(s)
Germany


Проект анносировал последующие релизы:

Космическая Кавалерия Русичей (EP)

(IMG:http://antiloh.info/mediafiles/02_Vsevolod_Ivanov_Vedicheskaya_Rus.jpg)

Гнев Мохнатого Деда (Full Length)

(IMG:http://antiloh.info/mediafiles/07_Vsevolod_Ivanov_Vedicheskaya_Rus.jpg)

Славянский Грибъ (Split with Stoned Jesus)

(IMG:http://antiloh.info/mediafiles/12_Vsevolod_Ivanov_Vedicheskaya_Rus.jpg)

Иван, закрой дверь, сука! (Full Length)

(IMG:http://antiloh.info/mediafiles/09_Vsevolod_Ivanov_Vedicheskaya_Rus.jpg)



В магазинах вашего города с 19 Белояра!


Go to the top of the page
  Insert nick Quick quote
+Quote Post
post Aug 22 2012, 13:42:52
Post #6

Шесть Литров
******
Group: Металариец
Posts: 502
Releases: 0
From: Бибирево-2
On Forums: 13 years 5 months
Thanks: 102 time(s)
Russian Federation


Всё хорошо.
Только всё впечатление портит голос о какой - то Светлане... (IMG:style_emoticons/default/23.gif)


Thanks:
(1) shial,
Go to the top of the page
  Insert nick Quick quote
+Quote Post
post May 6 2015, 14:35:25
Post #7

Шесть Литров
******
Group: Металариец
Posts: 592
Releases: 0
On Forums: 8 years 8 months
Thanks: 50 time(s)
Unknown


Странно... Так мало стёба. А ведь здесь мы наблюдаем просто непаханное поле для троллинга. А вот A.L.Rapsod даже похвалил.
Go to the top of the page
  Insert nick Quick quote
+Quote Post

Reply to this topicStart new topic
2 User(s) are reading this topic (2 Guests and 0 Anonymous Users)
0 Members:

 



- Lo-Fi Version Support form
Copyrights and abuse reports form
Time is now: 29th May 2020 - 11:15:30